Торрент файл
скачать торрент магнет ссылка Добавлен: 27 дек 2012, 22:48
Размер: 6.97 ГБ
Сидеров: 8
Личеров: 4
Статус: (salma3)
Автор

СообщениеДобавлено: 27 дек 2012, 22:48 

Не в сети
Супермодератор
Аватара пользователя
Дата регистрации:
15 фев 2012, 16:44
Возраст: 28
Спасибо: 6593 / 2145
Сообщения: 44237

Линч / Послание из гроба / Lynch /

Год выхода: 2012
Жанр: триллер, боевик, драма, комедия,
Режиссер: Felipe Martínez, Riccardo Gabrielli R., Jonathan Jakubowicz, Diego Mejia Montes, Lilo Vila
В ролях: Наталия Орейро, Хорхе Перугоррия, Алехандро Кальва, Татан Рамирез, Марсела Карвахаль, Хорхе Монтерросо, Паула Кастаньо, Кристиан Мейер, Хуан Баптиста и др.

О фильме:
Сюжет этого мини-сериала рассказывает о похоронном бюро, владельцы которого семья «LYNCH» за большие деньги, фальсифицирует смерть людей, которые на самом деле живы, но которые, по какой-то причине добиваются того, чтобы все вокруг поверили, что они перестали существовать. Здесь присутствует чёрный юмор, забавные ситуации и неожиданный взгляд на смерть как таковую.



Страна: Колумбия
Студия: FoxTelecolombia,Moviecity
Продолжительность: ~00:55:00
Перевод: Любительский [многоголосый закадровый] (Victory films & ViruseProject)


Файл
Кодек: XviD
Качество: HDRip
Видео: 704x400 (1.76:1), 29.970 fps, XviD build 50 ~1194 kbps avg, 0.14 bit/pixel
Звук: 44.100 kHz, MPEG Layer 3, 2 ch, ~192.00 kbps avg
Субтитры: нет

Семпл
Озвучка:
Андрей Питерский
Камила Юнусова
Евгений Киселев
Алла Блаер

Перевод: Виктория IVK
Сведение звука: Андрей Питерский

Общее
Полное имя: C:UsersAmberDesktopLynch.S01Lynch_S01.E01_Victory Films & ViruseProject.avi
Формат: AVI
Формат/Информация: Audio Video Interleave
Размер файла: 533 Мбайт
Продолжительность: 53 м.
Общий поток: 1398 Кбит/сек
Программа кодирования: VirtualDubMod 1.5.10.2 (build 2540/release)
Библиотека кодирования: VirtualDubMod build 2540/release

Видео
Идентификатор: 0
Формат: MPEG-4 Visual
Профиль формата: Advanced Simple@L5
Параметр BVOP формата: 2
Параметр QPel формата: Нет
Параметр GMC формата: Без точки перехода
Параметр матрицы формата: Default (H.263)
Идентификатор кодека: XVID
Идентификатор кодека/Подсказка: XviD
Продолжительность: 53 м.
Битрейт: 1194 Кбит/сек
Ширина: 704 пикселя
Высота: 400 пикселей
Соотношение сторон: 16:9
Соотношение сторон в оригинале: 16:9
Частота кадров: 29,970 кадров/сек
Цветовое пространство: YUV
Субдискретизация насыщенности: 4:2:0
Битовая глубина: 8 бит
Тип развёртки: Прогрессивная
Метод сжатия: С потерями
Бит/(Пиксели*Кадры): 0.141
Размер потока: 455 Мбайт (85%)
Библиотека кодирования: XviD 1.2.1 (UTC 2008-12-04)

Аудио
Идентификатор: 1
Формат: MPEG Audio
Версия формата: Version 1
Профиль формата: Layer 3
Режим: Joint stereo
Идентификатор кодека: 55
Идентификатор кодека/Подсказка: MP3
Продолжительность: 53 м.
Вид битрейта: Постоянный
Битрейт: 192 Кбит/сек
Каналы: 2 канала
Частота: 44,1 КГц
Метод сжатия: С потерями
Размер потока: 73,2 Мбайт (14%)
Выравнивание: Разделение по промежуткам
Продолжительность промежутка: 33мс. (1,00 видеокадр)
Время предзагрузки промежутка: 500мс.

Общее
Полное имя: C:UsersAmberDesktopLynch.S01Lynch_S01.E02_Victory Films & ViruseProject.avi
Формат: AVI
Формат/Информация: Audio Video Interleave
Размер файла: 580 Мбайт
Продолжительность: 58 м.
Общий поток: 1398 Кбит/сек
Программа кодирования: VirtualDubMod 1.5.10.2 (build 2540/release)
Библиотека кодирования: VirtualDubMod build 2540/release

Видео
Идентификатор: 0
Формат: MPEG-4 Visual
Профиль формата: Advanced Simple@L5
Параметр BVOP формата: 2
Параметр QPel формата: Нет
Параметр GMC формата: Без точки перехода
Параметр матрицы формата: Default (H.263)
Идентификатор кодека: XVID
Идентификатор кодека/Подсказка: XviD
Продолжительность: 58 м.
Битрейт: 1194 Кбит/сек
Ширина: 704 пикселя
Высота: 400 пикселей
Соотношение сторон: 16:9
Соотношение сторон в оригинале: 16:9
Частота кадров: 29,970 кадров/сек
Цветовое пространство: YUV
Субдискретизация насыщенности: 4:2:0
Битовая глубина: 8 бит
Тип развёртки: Прогрессивная
Метод сжатия: С потерями
Бит/(Пиксели*Кадры): 0.141
Размер потока: 496 Мбайт (85%)
Библиотека кодирования: XviD 1.2.1 (UTC 2008-12-04)

Аудио
Идентификатор: 1
Формат: MPEG Audio
Версия формата: Version 1
Профиль формата: Layer 3
Режим: Joint stereo
Идентификатор кодека: 55
Идентификатор кодека/Подсказка: MP3
Продолжительность: 58 м.
Вид битрейта: Постоянный
Битрейт: 192 Кбит/сек
Каналы: 2 канала
Частота: 44,1 КГц
Метод сжатия: С потерями
Размер потока: 79,7 Мбайт (14%)
Выравнивание: Разделение по промежуткам
Продолжительность промежутка: 33мс. (1,00 видеокадр)
Время предзагрузки промежутка: 500мс.

Общее
Полное имя: C:UsersAmberDesktopLynch.S01Lynch_S01.E03_Victory Films & ViruseProject.avi
Формат: AVI
Формат/Информация: Audio Video Interleave
Размер файла: 575 Мбайт
Продолжительность: 57 м.
Общий поток: 1397 Кбит/сек
Программа кодирования: VirtualDubMod 1.5.10.2 (build 2540/release)
Библиотека кодирования: VirtualDubMod build 2540/release

Видео
Идентификатор: 0
Формат: MPEG-4 Visual
Профиль формата: Advanced Simple@L5
Параметр BVOP формата: 2
Параметр QPel формата: Нет
Параметр GMC формата: Без точки перехода
Параметр матрицы формата: Default (H.263)
Идентификатор кодека: XVID
Идентификатор кодека/Подсказка: XviD
Продолжительность: 57 м.
Битрейт: 1194 Кбит/сек
Ширина: 704 пикселя
Высота: 400 пикселей
Соотношение сторон: 16:9
Соотношение сторон в оригинале: 16:9
Частота кадров: 29,970 кадров/сек
Цветовое пространство: YUV
Субдискретизация насыщенности: 4:2:0
Битовая глубина: 8 бит
Тип развёртки: Прогрессивная
Метод сжатия: С потерями
Бит/(Пиксели*Кадры): 0.141
Размер потока: 491 Мбайт (85%)
Библиотека кодирования: XviD 1.2.1 (UTC 2008-12-04)

Аудио
Идентификатор: 1
Формат: MPEG Audio
Версия формата: Version 1
Профиль формата: Layer 3
Режим: Joint stereo
Идентификатор кодека: 55
Идентификатор кодека/Подсказка: MP3
Продолжительность: 57 м.
Вид битрейта: Постоянный
Битрейт: 192 Кбит/сек
Каналы: 2 канала
Частота: 44,1 КГц
Метод сжатия: С потерями
Размер потока: 79,0 Мбайт (14%)
Выравнивание: Разделение по промежуткам
Продолжительность промежутка: 33мс. (1,00 видеокадр)
Время предзагрузки промежутка: 500мс.

Общее
Полное имя: C:UsersAmberDesktopLynch.S01Lynch_S01.E04_Victory Films & ViruseProject.avi
Формат: AVI
Формат/Информация: Audio Video Interleave
Размер файла: 524 Мбайт
Продолжительность: 56 м.
Общий поток: 1304 Кбит/сек
Программа кодирования: VirtualDubMod 1.5.10.2 (build 2540/release)
Библиотека кодирования: VirtualDubMod build 2540/release

Видео
Идентификатор: 0
Формат: MPEG-4 Visual
Профиль формата: Advanced Simple@L5
Параметр BVOP формата: 2
Параметр QPel формата: Нет
Параметр GMC формата: Без точки перехода
Параметр матрицы формата: Default (H.263)
Идентификатор кодека: XVID
Идентификатор кодека/Подсказка: XviD
Продолжительность: 56 м.
Битрейт: 1100 Кбит/сек
Ширина: 704 пикселя
Высота: 400 пикселей
Соотношение сторон: 16:9
Соотношение сторон в оригинале: 16:9
Частота кадров: 29,970 кадров/сек
Цветовое пространство: YUV
Субдискретизация насыщенности: 4:2:0
Битовая глубина: 8 бит
Тип развёртки: Прогрессивная
Метод сжатия: С потерями
Бит/(Пиксели*Кадры): 0.130
Размер потока: 442 Мбайт (84%)
Библиотека кодирования: XviD 1.2.1 (UTC 2008-12-04)

Аудио
Идентификатор: 1
Формат: MPEG Audio
Версия формата: Version 1
Профиль формата: Layer 3
Режим: Joint stereo
Идентификатор кодека: 55
Идентификатор кодека/Подсказка: MP3
Продолжительность: 56 м.
Вид битрейта: Постоянный
Битрейт: 192 Кбит/сек
Каналы: 2 канала
Частота: 44,1 КГц
Метод сжатия: С потерями
Размер потока: 77,2 Мбайт (15%)
Выравнивание: Разделение по промежуткам
Продолжительность промежутка: 33мс. (1,00 видеокадр)
Время предзагрузки промежутка: 500мс.

Общее
Полное имя: C:UsersAmberDesktopLynch.S01Lynch_S01.E05_Victory Films & ViruseProject.avi
Формат: AVI
Формат/Информация: Audio Video Interleave
Размер файла: 538 Мбайт
Продолжительность: 53 м.
Общий поток: 1398 Кбит/сек
Программа кодирования: VirtualDubMod 1.5.10.2 (build 2540/release)
Библиотека кодирования: VirtualDubMod build 2540/release

Видео
Идентификатор: 0
Формат: MPEG-4 Visual
Профиль формата: Advanced Simple@L5
Параметр BVOP формата: 2
Параметр QPel формата: Нет
Параметр GMC формата: Без точки перехода
Параметр матрицы формата: Default (H.263)
Идентификатор кодека: XVID
Идентификатор кодека/Подсказка: XviD
Продолжительность: 53 м.
Битрейт: 1194 Кбит/сек
Ширина: 704 пикселя
Высота: 400 пикселей
Соотношение сторон: 16:9
Соотношение сторон в оригинале: 16:9
Частота кадров: 29,970 кадров/сек
Цветовое пространство: YUV
Субдискретизация насыщенности: 4:2:0
Битовая глубина: 8 бит
Тип развёртки: Прогрессивная
Метод сжатия: С потерями
Бит/(Пиксели*Кадры): 0.141
Размер потока: 459 Мбайт (85%)
Библиотека кодирования: XviD 1.2.1 (UTC 2008-12-04)

Аудио
Идентификатор: 1
Формат: MPEG Audio
Версия формата: Version 1
Профиль формата: Layer 3
Режим: Joint stereo
Идентификатор кодека: 55
Идентификатор кодека/Подсказка: MP3
Продолжительность: 53 м.
Вид битрейта: Постоянный
Битрейт: 192 Кбит/сек
Каналы: 2 канала
Частота: 44,1 КГц
Метод сжатия: С потерями
Размер потока: 73,9 Мбайт (14%)
Выравнивание: Разделение по промежуткам
Продолжительность промежутка: 33мс. (1,00 видеокадр)
Время предзагрузки промежутка: 500мс.

Общее
Полное имя: C:UsersAmberDesktopLynch.S01Lynch_S01.E06_Victory Films & ViruseProject.avi
Формат: AVI
Формат/Информация: Audio Video Interleave
Размер файла: 560 Мбайт
Продолжительность: 59 м.
Общий поток: 1314 Кбит/сек
Программа кодирования: VirtualDubMod 1.5.10.2 (build 2540/release)
Библиотека кодирования: VirtualDubMod build 2540/release

Видео
Идентификатор: 0
Формат: MPEG-4 Visual
Профиль формата: Advanced Simple@L5
Параметр BVOP формата: 2
Параметр QPel формата: Нет
Параметр GMC формата: Без точки перехода
Параметр матрицы формата: Default (H.263)
Идентификатор кодека: XVID
Идентификатор кодека/Подсказка: XviD
Продолжительность: 59 м.
Битрейт: 1110 Кбит/сек
Ширина: 704 пикселя
Высота: 400 пикселей
Соотношение сторон: 16:9
Соотношение сторон в оригинале: 16:9
Частота кадров: 29,970 кадров/сек
Цветовое пространство: YUV
Субдискретизация насыщенности: 4:2:0
Битовая глубина: 8 бит
Тип развёртки: Прогрессивная
Метод сжатия: С потерями
Бит/(Пиксели*Кадры): 0.132
Размер потока: 473 Мбайт (84%)
Библиотека кодирования: XviD 1.2.1 (UTC 2008-12-04)

Аудио
Идентификатор: 1
Формат: MPEG Audio
Версия формата: Version 1
Профиль формата: Layer 3
Режим: Joint stereo
Идентификатор кодека: 55
Идентификатор кодека/Подсказка: MP3
Продолжительность: 59 м.
Вид битрейта: Постоянный
Битрейт: 192 Кбит/сек
Каналы: 2 канала
Частота: 44,1 КГц
Метод сжатия: С потерями
Размер потока: 81,8 Мбайт (15%)
Выравнивание: Разделение по промежуткам
Продолжительность промежутка: 33мс. (1,00 видеокадр)
Время предзагрузки промежутка: 500мс.

Общее
Полное имя: C:UsersAmberDesktopLynch.S01Lynch_S01.E07_Victory Films & ViruseProject.avi
Формат: AVI
Формат/Информация: Audio Video Interleave
Размер файла: 540 Мбайт
Продолжительность: 54 м.
Общий поток: 1398 Кбит/сек
Программа кодирования: VirtualDubMod 1.5.10.2 (build 2540/release)
Библиотека кодирования: VirtualDubMod build 2540/release

Видео
Идентификатор: 0
Формат: MPEG-4 Visual
Профиль формата: Advanced Simple@L5
Параметр BVOP формата: 2
Параметр QPel формата: Нет
Параметр GMC формата: Без точки перехода
Параметр матрицы формата: Default (H.263)
Идентификатор кодека: XVID
Идентификатор кодека/Подсказка: XviD
Продолжительность: 54 м.
Битрейт: 1194 Кбит/сек
Ширина: 704 пикселя
Высота: 400 пикселей
Соотношение сторон: 16:9
Соотношение сторон в оригинале: 16:9
Частота кадров: 29,970 кадров/сек
Цветовое пространство: YUV
Субдискретизация насыщенности: 4:2:0
Битовая глубина: 8 бит
Тип развёртки: Прогрессивная
Метод сжатия: С потерями
Бит/(Пиксели*Кадры): 0.141
Размер потока: 461 Мбайт (85%)
Библиотека кодирования: XviD 1.2.1 (UTC 2008-12-04)

Аудио
Идентификатор: 1
Формат: MPEG Audio
Версия формата: Version 1
Профиль формата: Layer 3
Режим: Joint stereo
Идентификатор кодека: 55
Идентификатор кодека/Подсказка: MP3
Продолжительность: 54 м.
Вид битрейта: Постоянный
Битрейт: 192 Кбит/сек
Каналы: 2 канала
Частота: 44,1 КГц
Метод сжатия: С потерями
Размер потока: 74,2 Мбайт (14%)
Выравнивание: Разделение по промежуткам
Продолжительность промежутка: 33мс. (1,00 видеокадр)
Время предзагрузки промежутка: 500мс.

Общее
Полное имя: C:UsersAmberDesktopLynch.S01Lynch_S01.E08_Victory Films & ViruseProject.avi
Формат: AVI
Формат/Информация: Audio Video Interleave
Размер файла: 606 Мбайт
Продолжительность: 1 ч. 0 м.
Общий поток: 1398 Кбит/сек
Программа кодирования: VirtualDubMod 1.5.10.2 (build 2540/release)
Библиотека кодирования: VirtualDubMod build 2540/release

Видео
Идентификатор: 0
Формат: MPEG-4 Visual
Профиль формата: Advanced Simple@L5
Параметр BVOP формата: 2
Параметр QPel формата: Нет
Параметр GMC формата: Без точки перехода
Параметр матрицы формата: Default (H.263)
Идентификатор кодека: XVID
Идентификатор кодека/Подсказка: XviD
Продолжительность: 1 ч. 0 м.
Битрейт: 1194 Кбит/сек
Ширина: 704 пикселя
Высота: 400 пикселей
Соотношение сторон: 16:9
Соотношение сторон в оригинале: 16:9
Частота кадров: 29,970 кадров/сек
Цветовое пространство: YUV
Субдискретизация насыщенности: 4:2:0
Битовая глубина: 8 бит
Тип развёртки: Прогрессивная
Метод сжатия: С потерями
Бит/(Пиксели*Кадры): 0.141
Размер потока: 517 Мбайт (85%)
Библиотека кодирования: XviD 1.2.1 (UTC 2008-12-04)

Аудио
Идентификатор: 1
Формат: MPEG Audio
Версия формата: Version 1
Профиль формата: Layer 3
Режим: Joint stereo
Идентификатор кодека: 55
Идентификатор кодека/Подсказка: MP3
Продолжительность: 1 ч. 0 м.
Вид битрейта: Постоянный
Битрейт: 192 Кбит/сек
Каналы: 2 канала
Частота: 44,1 КГц
Метод сжатия: С потерями
Размер потока: 83,2 Мбайт (14%)
Выравнивание: Разделение по промежуткам
Продолжительность промежутка: 33мс. (1,00 видеокадр)
Время предзагрузки промежутка: 500мс.

Общее
Полное имя: C:UsersAmberDesktopLynch.S01Lynch_S01.E09_Victory Films & ViruseProject.avi
Формат: AVI
Формат/Информация: Audio Video Interleave
Размер файла: 587 Мбайт
Продолжительность: 58 м.
Общий поток: 1398 Кбит/сек
Программа кодирования: VirtualDubMod 1.5.10.2 (build 2540/release)
Библиотека кодирования: VirtualDubMod build 2540/release

Видео
Идентификатор: 0
Формат: MPEG-4 Visual
Профиль формата: Advanced Simple@L5
Параметр BVOP формата: 2
Параметр QPel формата: Нет
Параметр GMC формата: Без точки перехода
Параметр матрицы формата: Default (H.263)
Идентификатор кодека: XVID
Идентификатор кодека/Подсказка: XviD
Продолжительность: 58 м.
Битрейт: 1194 Кбит/сек
Ширина: 704 пикселя
Высота: 400 пикселей
Соотношение сторон: 16:9
Соотношение сторон в оригинале: 16:9
Частота кадров: 29,970 кадров/сек
Цветовое пространство: YUV
Субдискретизация насыщенности: 4:2:0
Битовая глубина: 8 бит
Тип развёртки: Прогрессивная
Метод сжатия: С потерями
Бит/(Пиксели*Кадры): 0.141
Размер потока: 502 Мбайт (85%)
Библиотека кодирования: XviD 1.2.1 (UTC 2008-12-04)

Аудио
Идентификатор: 1
Формат: MPEG Audio
Версия формата: Version 1
Профиль формата: Layer 3
Режим: Joint stereo
Идентификатор кодека: 55
Идентификатор кодека/Подсказка: MP3
Продолжительность: 58 м.
Вид битрейта: Постоянный
Битрейт: 192 Кбит/сек
Каналы: 2 канала
Частота: 44,1 КГц
Метод сжатия: С потерями
Размер потока: 80,7 Мбайт (14%)
Выравнивание: Разделение по промежуткам
Продолжительность промежутка: 33мс. (1,00 видеокадр)
Время предзагрузки промежутка: 500мс.

Общее
Полное имя: C:UsersAmberDesktopLynch.S01Lynch_S01.E10_Victory Films & ViruseProject.avi
Формат: AVI
Формат/Информация: Audio Video Interleave
Размер файла: 575 Мбайт
Продолжительность: 57 м.
Общий поток: 1398 Кбит/сек
Программа кодирования: VirtualDubMod 1.5.10.2 (build 2540/release)
Библиотека кодирования: VirtualDubMod build 2540/release

Видео
Идентификатор: 0
Формат: MPEG-4 Visual
Профиль формата: Advanced Simple@L5
Параметр BVOP формата: 2
Параметр QPel формата: Нет
Параметр GMC формата: Без точки перехода
Параметр матрицы формата: Default (H.263)
Идентификатор кодека: XVID
Идентификатор кодека/Подсказка: XviD
Продолжительность: 57 м.
Битрейт: 1194 Кбит/сек
Ширина: 704 пикселя
Высота: 400 пикселей
Соотношение сторон: 16:9
Соотношение сторон в оригинале: 16:9
Частота кадров: 29,970 кадров/сек
Цветовое пространство: YUV
Субдискретизация насыщенности: 4:2:0
Битовая глубина: 8 бит
Тип развёртки: Прогрессивная
Метод сжатия: С потерями
Бит/(Пиксели*Кадры): 0.141
Размер потока: 491 Мбайт (85%)
Библиотека кодирования: XviD 1.2.1 (UTC 2008-12-04)

Аудио
Идентификатор: 1
Формат: MPEG Audio
Версия формата: Version 1
Профиль формата: Layer 3
Режим: Joint stereo
Идентификатор кодека: 55
Идентификатор кодека/Подсказка: MP3
Продолжительность: 57 м.
Вид битрейта: Постоянный
Битрейт: 192 Кбит/сек
Каналы: 2 канала
Частота: 44,1 КГц
Метод сжатия: С потерями
Размер потока: 79,0 Мбайт (14%)
Выравнивание: Разделение по промежуткам
Продолжительность промежутка: 33мс. (1,00 видеокадр)
Время предзагрузки промежутка: 500мс.

Общее
Полное имя: C:UsersAmberDesktopLynch.S01Lynch_S01.E11_Victory Films & ViruseProject.avi
Формат: AVI
Формат/Информация: Audio Video Interleave
Размер файла: 507 Мбайт
Продолжительность: 54 м.
Общий поток: 1305 Кбит/сек
Программа кодирования: VirtualDubMod 1.5.10.2 (build 2540/release)
Библиотека кодирования: VirtualDubMod build 2540/release

Видео
Идентификатор: 0
Формат: MPEG-4 Visual
Профиль формата: Advanced Simple@L5
Параметр BVOP формата: 2
Параметр QPel формата: Нет
Параметр GMC формата: Без точки перехода
Параметр матрицы формата: Default (H.263)
Идентификатор кодека: XVID
Идентификатор кодека/Подсказка: XviD
Продолжительность: 54 м.
Битрейт: 1101 Кбит/сек
Ширина: 704 пикселя
Высота: 400 пикселей
Соотношение сторон: 16:9
Соотношение сторон в оригинале: 16:9
Частота кадров: 29,970 кадров/сек
Цветовое пространство: YUV
Субдискретизация насыщенности: 4:2:0
Битовая глубина: 8 бит
Тип развёртки: Прогрессивная
Метод сжатия: С потерями
Бит/(Пиксели*Кадры): 0.130
Размер потока: 428 Мбайт (84%)
Библиотека кодирования: XviD 1.2.1 (UTC 2008-12-04)

Аудио
Идентификатор: 1
Формат: MPEG Audio
Версия формата: Version 1
Профиль формата: Layer 3
Режим: Joint stereo
Идентификатор кодека: 55
Идентификатор кодека/Подсказка: MP3
Продолжительность: 54 м.
Вид битрейта: Постоянный
Битрейт: 192 Кбит/сек
Каналы: 2 канала
Частота: 44,1 КГц
Метод сжатия: С потерями
Размер потока: 74,6 Мбайт (15%)
Выравнивание: Разделение по промежуткам
Продолжительность промежутка: 33мс. (1,00 видеокадр)
Время предзагрузки промежутка: 500мс.

Общее
Полное имя: C:UsersAmberDesktopLynch.S01Lynch_S01.E12_Victory Films & ViruseProject.avi
Формат: AVI
Формат/Информация: Audio Video Interleave
Размер файла: 487 Мбайт
Продолжительность: 48 м.
Общий поток: 1398 Кбит/сек
Программа кодирования: VirtualDubMod 1.5.10.2 (build 2540/release)
Библиотека кодирования: VirtualDubMod build 2540/release

Видео
Идентификатор: 0
Формат: MPEG-4 Visual
Профиль формата: Advanced Simple@L5
Параметр BVOP формата: 2
Параметр QPel формата: Нет
Параметр GMC формата: Без точки перехода
Параметр матрицы формата: Default (H.263)
Идентификатор кодека: XVID
Идентификатор кодека/Подсказка: XviD
Продолжительность: 48 м.
Битрейт: 1194 Кбит/сек
Ширина: 704 пикселя
Высота: 400 пикселей
Соотношение сторон: 16:9
Соотношение сторон в оригинале: 16:9
Частота кадров: 29,970 кадров/сек
Цветовое пространство: YUV
Субдискретизация насыщенности: 4:2:0
Битовая глубина: 8 бит
Тип развёртки: Прогрессивная
Метод сжатия: С потерями
Бит/(Пиксели*Кадры): 0.141
Размер потока: 416 Мбайт (85%)
Библиотека кодирования: XviD 1.2.1 (UTC 2008-12-04)

Аудио
Идентификатор: 1
Формат: MPEG Audio
Версия формата: Version 1
Профиль формата: Layer 3
Режим: Joint stereo
Идентификатор кодека: 55
Идентификатор кодека/Подсказка: MP3
Продолжительность: 48 м.
Вид битрейта: Постоянный
Битрейт: 192 Кбит/сек
Каналы: 2 канала
Частота: 44,1 КГц
Метод сжатия: С потерями
Размер потока: 66,9 Мбайт (14%)
Выравнивание: Разделение по промежуткам
Продолжительность промежутка: 33мс. (1,00 видеокадр)
Время предзагрузки промежутка: 500мс.

Общее
Полное имя: C:UsersAmberDesktopLynch.S01Lynch_S01.E13_Victory Films & ViruseProject.avi
Формат: AVI
Формат/Информация: Audio Video Interleave
Размер файла: 527 Мбайт
Продолжительность: 52 м.
Общий поток: 1398 Кбит/сек
Программа кодирования: VirtualDubMod 1.5.10.2 (build 2540/release)
Библиотека кодирования: VirtualDubMod build 2540/release

Видео
Идентификатор: 0
Формат: MPEG-4 Visual
Профиль формата: Advanced Simple@L5
Параметр BVOP формата: 2
Параметр QPel формата: Нет
Параметр GMC формата: Без точки перехода
Параметр матрицы формата: Default (H.263)
Идентификатор кодека: XVID
Идентификатор кодека/Подсказка: XviD
Продолжительность: 52 м.
Битрейт: 1194 Кбит/сек
Ширина: 704 пикселя
Высота: 400 пикселей
Соотношение сторон: 16:9
Соотношение сторон в оригинале: 16:9
Частота кадров: 29,970 кадров/сек
Цветовое пространство: YUV
Субдискретизация насыщенности: 4:2:0
Битовая глубина: 8 бит
Тип развёртки: Прогрессивная
Метод сжатия: С потерями
Бит/(Пиксели*Кадры): 0.141
Размер потока: 450 Мбайт (85%)
Библиотека кодирования: XviD 1.2.1 (UTC 2008-12-04)

Аудио
Идентификатор: 1
Формат: MPEG Audio
Версия формата: Version 1
Профиль формата: Layer 3
Режим: Joint stereo
Идентификатор кодека: 55
Идентификатор кодека/Подсказка: MP3
Продолжительность: 52 м.
Вид битрейта: Постоянный
Битрейт: 192 Кбит/сек
Каналы: 2 канала
Частота: 44,1 КГц
Метод сжатия: С потерями
Размер потока: 72,4 Мбайт (14%)
Выравнивание: Разделение по промежуткам
Продолжительность промежутка: 33мс. (1,00 видеокадр)
Время предзагрузки промежутка: 500мс.




Релиз от: Victory films & ViruseProject




реклама партнёра


Вернуться к началу
 Профиль Отправить личное сообщение  
 
   Похожие торренты   Автор   Торрент   Размер 
В этой теме нет новых непрочитанных сообщений. Морская Полиция: Лос-Анджелес / NCIS: Los Angeles / 3 сезон 1-19 серии из 24 [Триллер, драма, криминал, детектив, боевик, 2011-2012] WEB-DLRip, Mvo [FOX]

salma3

0 | 1

13.17 ГБ

В этой теме нет новых непрочитанных сообщений. Послание / The Message [драма, военный, биография, история, 1976] HDRip, Avo

salma3

50 | 18

2.18 ГБ

В этой теме нет новых непрочитанных сообщений. Подопытные / Lab Rats / 1 сезон 1-20 серии из 20 [фэнтези, боевик, комедия, 2012] WEB-DLRip, Dub [Невафильм]

salma3

16 | 12

6.06 ГБ

В этой теме нет новых непрочитанных сообщений. Скорпион / Scorpion / 3 сезон 1-24 серии из 24 [триллер, драма, боевик, 2016] WEB-DL 720p, Mvo [FOX]

salma3

5 | 11

33.73 ГБ

В этой теме нет новых непрочитанных сообщений. Скорпион / Scorpion / 3 сезон 1-24 серии из 24 [триллер, драма, боевик, 2016] WEB-DLRip, Mvo [FOX]

salma3

12 | 22

13.49 ГБ

В этой теме нет новых непрочитанных сообщений. Скорпион / Scorpion / 3 сезон 1-24 серии из 24 [триллер, драма, боевик, 2016] WEB-DLRip, Mvo [BaibaKo]

salma3

9 | 94

11.73 ГБ

В этой теме нет новых непрочитанных сообщений. Ван Хельсинг / Van Helsing / 1 сезон 1-13 серии из 13 [Фэнтези, боевик, триллер, драма, 2016] WEB-DLRip, Mvo [LostFilm]

salma3

289 | 231

7.33 ГБ


Начать новую тему Ответить на тему  [ 1 сообщение ] 




Для Мосгорсуда, Роскомнадзора и рекламодателей:: mosgorsud-torrent[собачка]yandex.ru