Торрент файл
скачать торрент магнет ссылка Добавлен: 16 дек 2012, 09:29
Размер: 4.11 ГБ
Сидеров: 58
Личеров: 11
Автор

СообщениеДобавлено: 16 дек 2012, 09:29 

Не в сети
Аватара пользователя
Дата регистрации:
16 окт 2011, 02:22
Спасибо: 3 / 7
Сообщения: 4
Откуда: Приморье
Преступление по наследству
Год выпуска: 2012
Производство: Кинокомпания «Всемирные Русские Студии»
Жанр: Приключенческий боевик
Продолжительность: 8 х ~ 00:43:00
Режиссёр: Эдуард Реджепов
В ролях: Олеся Фаттахова, Влад Канопка, Михаил Гаврилов (II), Людмила Полякова, Татьяна Демидова, Людмила Чурсина, Виталий Кудрявцев, Юрий Мосейчук, Александр Числов, Тимофей Смирнов, Серафима Низовская, Татьяна Полосина, Кирилл Козаков, Сергей Колесников, Надежда Горелова, Артём Ткаченко, Светлана Потанина, Константин Глушко, Евдокия Германова, Николай Сахаров, Александр Ратников, Тимофей Ухов, Сергей Каплунов, Владимир Колида, Константин Глушков
Описание: Анины планы на лето изменились в одночасье. Вместо веселой студенческой практики в Крыму, она едет в подмосковное садовое товарищество «Советский геолог», где умирает её дед-академик Ермолаев. Перед смертью дед умоляет её доказать всем, что он не виноват в смерти двух своих самых близких друзей. Дед произносит странное слово – «Канкара» - и умирает, а Аня решает во всем разобраться. Девушка даже не подозревает, что ей придется не только погрузиться в события далекого 1966 года, но и подвергнуться смертельной опасности. Только так она сможет разгадать тайну речки Канкара…
Семпл:
Релиз от:
Раздача от группы:
Качество: SATRip
Формат: AVI
Видео кодек: XviD
Аудио кодек: MP3
Видео: XviD, 1550 Кбит/с, 720x384, 0.271 bit/pixel
Аудио: MP3, 2 ch, 128 Кбит/с kbps
MI
Общее
Полное имя Prestupleniye.po.nasledstvu.(2seriya.iz.8).2012.XviD.SATRip.Files-x.avi
Формат : AVI
Формат/Информация : Audio Video Interleave
Размер файла : 526 Мбайт
Продолжительность : 43 м.
Общий поток : 1683 Кбит/сек
Программа кодирования : VirtualDubModRus 1.5.10.2 (build 2542/release)
Библиотека кодирования : VirtualDubMod build 2542/release
Видео
Идентификатор : 0
Формат : MPEG-4 Visual
Профиль формата : Simple@L3
Параметр BVOP формата : Нет
Параметр QPel формата : Нет
Параметр GMC формата : Без точки перехода
Параметр матрицы формата : Default (H.263)
Идентификатор кодека : XVID
Идентификатор кодека/Подсказка : XviD
Продолжительность : 43 м.
Битрейт : 1545 Кбит/сек
Ширина : 720 пикселей
Высота : 384 пикселя
Соотношение сторон : 1,222
Соотношение сторон в оригинале : 1,85:1
Частота кадров : 25,000 кадров/сек
Цветовое пространство : YUV
Субдискретизация насыщенности : 4:2:0
Битовая глубина : 8 бит
Тип развёртки : Прогрессивная
Метод сжатия : С потерями
Бит/(Пиксели*Кадры) : 0.224
Размер потока : 483 Мбайт (92%)
Библиотека кодирования : XviD 64
Аудио
Идентификатор : 1
Формат : MPEG Audio
Версия формата : Version 1
Профиль формата : Layer 3
Режим : Joint stereo
Расширение режима : MS Stereo
Идентификатор кодека : 55
Идентификатор кодека/Подсказка : MP3
Продолжительность : 43 м.
Вид битрейта : Постоянный
Битрейт : 128 Кбит/сек
Каналы : 2 канала
Частота : 48,0 КГц
Метод сжатия : С потерями
Размер потока : 40,0 Мбайт (8%)
Выравнивание : Разделение по промежуткам
Продолжительность промежутка : 40 мс. (1,00 видеокадр)
Время предзагрузки промежутка : 500 мс.
Скриншоты
Внимание! Раздача ведётся путём добавления новых серий!!!
Внимание! Раздача ведётся путём добавления новых серий
Внимание! Раздача ведётся путём добавления новых серий; при каждом добавлении создаётся новый торрент.
Чтобы начать докачку новой серии, пользователям необходимо сделать следующее:
1) остановить скачивание
2) удалить старый торрент у себя из клиента (старые серии удалять не надо)
3) скачать новый торрент и запустить его у себя в клиенте вместо старого, при этом указать клиенту путь в старую папку куда и должно происходить скачивание новых серий.
Ваш клиент при этом должен произвести хеширование (проверку) старой папки (если не производит сам - помогите ему сделать это), и будет докачивать только те серии которых у вас ещё нет. Старые серии при этом не удаляются, а продолжают раздаваться!
Eсли вы уже удалили старые серии, то предотвратить повторную закачку старых серий можно, отжав галочку в соответствовавших местах при запуске нового торрента.
Добавлена 5, 6, 7 и 8 серия!!!
Обновите торрент файл!!!




реклама партнёра


Вернуться к началу
 Профиль Отправить личное сообщение  
 
   Похожие торренты   Автор   Торрент   Размер 
В этой теме нет новых непрочитанных сообщений. Преступление в фокусе [01-04 из 04] [Боевик, 2014] WEB-DL 1080p

Dracon

120 | 9

3.66 ГБ

В этой теме нет новых непрочитанных сообщений. Преступление в фокусе [01-04 из 04] [Боевик, 2014] WEB-DLRip

Dracon

525 | 38

2.15 ГБ

В этой теме нет новых непрочитанных сообщений. Безмолвие / Молчание / Suskunlar / 1 сезон 1-10 серии из 16 [боевик, триллер, драма, криминал, 2012] SATRip, Avo

salma3

0 | 4

10.76 ГБ

В этой теме нет новых непрочитанных сообщений. Две легенды [Серии 1-8 из 8] [Боевик, 2014] SATRip

Dracon

7 | 2

4.57 ГБ

В этой теме нет новых непрочитанных сообщений. Бриллиантовая Роза / Rosa Diamante / Серии: 31-60 из 125 [мелодрама, 2012] SATRip, Mvo

salma3

2 | 2

15.8 ГБ

В этой теме нет новых непрочитанных сообщений. Бриллиантовая Роза / Rosa Diamante / Серии: 1-30 из 125 [мелодрама, 2012] SATRip, Mvo

salma3

2 | 2

16.33 ГБ

В этой теме нет новых непрочитанных сообщений. Бриллиантовая Роза / Rosa Diamante / Серии: 91-125 из 125 [мелодрама, 2012] SATRip, Mvo

salma3

6 | 3

18.26 ГБ


Начать новую тему Ответить на тему  [ 1 сообщение ] 




Для Мосгорсуда, Роскомнадзора и рекламодателей:: mosgorsud-torrent[собачка]yandex.ru