Торрент файл
скачать торрент магнет ссылка Добавлен: 13 дек 2012, 19:49
Размер: 5.33 ГБ
Сидеров: 0
Личеров: 3
Статус: (salma3)
Автор

СообщениеДобавлено: 13 дек 2012, 19:49 

Не в сети
Супермодератор
Аватара пользователя
Дата регистрации:
15 фев 2012, 16:44
Возраст: 27
Спасибо: 5134 / 2089
Сообщения: 17405

Подразделение 1 / Первая группа / Rejseholdet / Unit One /

Год выпуска: 2001
Страна: Дания, Швеция
Жанр:триллер, драма, криминал
Продолжительность: 07 х ~ 00:58:00
Перевод: профессиональный (многоголосый закадровый) - Baibako
Субтитры: нет
Режиссер: Нильс Арден Оплев, Оле Кристиан Мадсен, Янник Йохансен
В ролях: Шарлотте Фич, Мадс Миккельсен, Ларс Бригманн, Вааге Сандо, Эрик Ведерсо, Трине Паллесен, Ларс Бом.

Описание:Подразделение 1 - это спецподразделение датской полиции для расследования особо сложных убийств. После того, как шеф подразделения сам становится жертвой загадочного убийства, выбор нового руководителя падает на женщину. Согласны ли бывшие сотрудники "убойного" подчиняться Ингрид Даль? Достаточно ли в ней опыта, упрямства и самоиронии, чтобы создать из циничных опытных полицейских свою команду единомышленников? Эта задача оказывается непростой и для команды, и для самой Ингрид... Неожиданные повороты в сценарии, участие в сериале лучших звезд датского кино (Мадс Миккельсен, Ларс Бригманн, Шарлотте Фич, Ларс Бом) обеспечили ему звание самого любимого в Дании и международный приз "Emmy Award" за лучший сериал. В каждой серии появляются новые знакомые лица, известные нам из датских Догм и других полюбившихся фильмов этой особенной кино-страны. Многие ждали этого сериала много лет, и вот он впервые в русском переводе. (с) муза






Качество: DVDRip
Формат: AVI
Видео кодек: XVID
Аудио кодек: MP3
Видео: MPEG-4 Visual Advanced Simple@L5 XviD 720x400 1500 Кбит/сек 25,000 кадров/сек 0.22 bit/pixel
Аудио rus:MPEG-1 Audio layer 3 2 канала 48,0 КГц 192 Кбит/сек CBR
Аудио dat:MPEG-1 Audio layer 3 2 канала 48,0 КГц 192 Кбит/сек CBR

Перевод: Вадим Литвиненко
Озвучка: Татьяна Оболевич, Юлия Котурбаш, Александр Фурман и Олекса Мельник.
Монтаж: Vitall Digitall
Обложка: Татьяна Saavick

Формат: AVI
Формат/Информация: Audio Video Interleave
Размер файла: 773 Мбайт
Продолжительность: 56 м.
Общий поток: 1898 Кбит/сек
Программа кодирования: VirtualDubMod 1.5.10.2 (build 2540/release)
Библиотека кодирования: VirtualDubMod build 2540/release

Видео
Идентификатор: 0
Формат: MPEG-4 Visual
Профиль формата: Advanced Simple@L5
Параметр BVOP формата: 2
Параметр QPel формата: Нет
Параметр GMC формата: Без точки перехода
Параметр матрицы формата: Default (H.263)
Идентификатор кодека: XVID
Идентификатор кодека/Подсказка: XviD
Продолжительность: 56 м.
Битрейт: 1499 Кбит/сек
Ширина: 720 пикс.
Высота: 400 пикс.
Соотношение сторон: 16:9
Частота кадров: 25,000 кадр/сек
Цветовое пространство: YUV
Подвыборка цветности: 4:2:0
Битовая глубина: 8 бит
Тип развёртки: Прогрессивная
Метод сжатия: С потерями
Бит/(Пиксели*Кадры): 0.208
Размер потока: 611 Мбайт (79%)
Библиотека кодирования: XviD 1.2.1 (UTC 2008-12-04)

Аудио #1
Идентификатор: 1
Формат: MPEG Audio
Версия формата: Version 1
Профиль формата: Layer 3
Режим: Joint stereo
Идентификатор кодека: 55
Идентификатор кодека/Подсказка: MP3
Продолжительность: 56 м.
Вид битрейта: Постоянный
Битрейт: 192 Кбит/сек
Каналы: 2 канала
Частота: 48,0 КГц
Метод сжатия: С потерями
Размер потока: 78,2 Мбайт (10%)
Выравнивание: Соединение по промежуткам
Продолжительность промежутка: 40мс. (1,00 видеокадр)
Время предзагрузки промежутка: 504 ms
Библиотека кодирования: LAME3.99r
Настройки программы: -m j -V 4 -q 2 -lowpass 18.6 -b 192

Аудио #2
Идентификатор: 2
Формат: MPEG Audio
Версия формата: Version 1
Профиль формата: Layer 3
Режим: Joint stereo
Идентификатор кодека: 55
Идентификатор кодека/Подсказка: MP3
Продолжительность: 56 м.
Вид битрейта: Постоянный
Битрейт: 192 Кбит/сек
Каналы: 2 канала
Частота: 48,0 КГц
Метод сжатия: С потерями
Размер потока: 78,2 Мбайт (10%)
Выравнивание: Разделение по промежуткам
Продолжительность промежутка: 40мс. (1,00 видеокадр)
Время предзагрузки промежутка: 500 ms
Библиотека кодирования: LAME3.99r
Настройки программы: -m j -V 4 -q 2 -lowpass 18.6 -b 192


Релиз от:




реклама партнёра


Вернуться к началу
 Профиль Отправить личное сообщение  
 
   Похожие торренты   Автор   Торрент   Размер 
В этой теме нет новых непрочитанных сообщений. Закон и порядок: Специальный корпус / Law & Order: Special Victims Unit [S01-11] [триллер, драма, криминал, детектив, 1999-2009] DVDRip, HDTVRip, Mvo

salma3

18 | 32

93.16 ГБ

В этой теме нет новых непрочитанных сообщений. Сезон лохов / Sezon na leszcza [драма, криминал, детектив, 2001] DVDRip, Mvo

salma3

76 | 34

1.37 ГБ

В этой теме нет новых непрочитанных сообщений. Мoст / Thе Bridgе / 2 сезон 1-6 серии из 10 [триллер, драма, криминал, детектив, 2014] WEB-DLRip, Mvo [Fox]

salma3

4 | 3

3.43 ГБ

В этой теме нет новых непрочитанных сообщений. Рожденный вором / Once A Thief / 1 сезон 1-22 серии из 22 [боевик, триллер, криминал, 1996] DVDRip, Mvo+Dvo [ДТВ/BaibaKo]

salma3

11 | 2

8.36 ГБ

В этой теме нет новых непрочитанных сообщений. Безмолвие / Молчание / Suskunlar / 1 сезон 1-10 серии из 16 [боевик, триллер, драма, криминал, 2012] SATRip, Avo

salma3

0 | 4

10.76 ГБ

В этой теме нет новых непрочитанных сообщений. Охотники / Hunters / 1 сезон 1-13 серии из 13 [фантастика, триллер, драма, криминал, 2016] WEB-DLRip, Mvo [Кравец]

salma3

150 | 111

5.98 ГБ

В этой теме нет новых непрочитанных сообщений. Падение / Крах / The Fall / 2 сезон 1-6 серии из 6 [триллер, криминал, драма, детектив , 2014] HDTVRip, mvo

salma3

141 | 64

4.62 ГБ


Начать новую тему Ответить на тему  [ 1 сообщение ] 




Для Мосгорсуда, Роскомнадзора и рекламодателей:: mosgorsud-torrent[собачка]yandex.ru