Торрент файл
скачать торрент магнет ссылка Добавлен: 10 дек 2012, 15:48
Размер: 4.45 ГБ
Сидеров: 21
Личеров: 6
Статус: (salma3)
Автор

СообщениеДобавлено: 10 дек 2012, 15:48 

Не в сети
Супермодератор
Аватара пользователя
Дата регистрации:
15 фев 2012, 16:44
Возраст: 27
Спасибо: 5139 / 2089
Сообщения: 17411

Особо Опасные Преступления / Особо тяжкие преступления / Major Crimes

Год выпуска: 2012
Страна: США
Жанр:детектив
Продолжительность: 10 х ~ 00:44:00
Перевод: Любительский [двухголосый закадровый] - DreamRecords
Субтитры: отсутствуют
Режиссер: Стэйси К. Блэк, Арвин Браун, Шилин Чокси
В ролях: Мэри МакДоннелл, Дж. У. Бейли, Энтони Джон Дэнисон, Майкл Пол Чан, Рэймонд Крус,Филлип П. Кин, Кирран Джованни, Грэхэм Патрик Мартин, Джонатан Дель Арко, Рэнсфорд Доэрти

Описание: Продолжение сериала Ищейка. После увольнения Бренды Ли Джонсон руководство Отделом Ососбо Опасных преступлений полиции Лос-Анджелеса берет в свои руки капитан Рэйдор. Однако ей предстоит работать в команде, котроая заранее испытывает к ней антипатию, ведь антипатию к ней всегда испытывала шеф Джонсон.




Качество: HDTVRip
Формат: AVI
Видео кодек: XviD
Аудио кодек: MP3
Видео: 720x400, 1 295 Kbps, 23.976 fps, 0.188 bit/pixel
Аудио rus: MP3, 48 kHz, 2 ch, 224 kbps
Перевод: HighFlyer, ono66, wdata
Озвучка: Christh & eske
Работа со звуком: LeX
Рип видео: LeX

Дополнительно: Данный телесериал является спин-оффом сериала «Ищейка» (The Closer), на этот раз команду возглавляет персонаж Шэрон Рейдор.


01. Перезагрузка / Reload
02. До и после / Before and After
03. Медицинские казусы / Medical Causes
04. Экстаз и агония / The Ecstasy and the Agony
05. Гражданский арест / Citizen's Arrest
06. За пределы / Out of Bounds
07. Позорная игра / The Shame Game
08. Dismissed with Prejudice
09. Мошенники никогда не преуспевают / Cheaters Never Prosper
10. Long Shot
Format: AVI
Format/Info: Audio Video Interleave
File size: 467 MiB
Duration: 42mn 47s
Overall bit rate: 1 527 Kbps
Writing application: VirtualDubModRus 1.5.10.2 (build 2542/release)
Writing library: VirtualDubMod build 2542/release

Video
ID: 0
Format: MPEG-4 Visual
Format profile: Advanced Simple@L5
Format settings, BVOP: 1
Format settings, QPel: No
Format settings, GMC: No warppoints
Format settings, Matrix: Default (MPEG)
Codec ID: XVID
Codec ID/Hint: XviD
Duration: 42mn 47s
Bit rate: 1 294 Kbps
Width: 720 pixels
Height: 400 pixels
Display aspect ratio: 16:9
Frame rate: 23.976 fps
Color space: YUV
Chroma subsampling: 4:2:0
Bit depth: 8 bits
Scan type: Progressive
Compression mode: Lossy
Bits/(Pixel*Frame): 0.187
Stream size: 396 MiB (85%)
Writing library: XviD 64

Audio
ID: 1
Format: MPEG Audio
Format version: Version 1
Format profile: Layer 3
Mode: Joint stereo
Codec ID: 55
Codec ID/Hint: MP3
Duration: 42mn 47s
Bit rate mode: Constant
Bit rate: 224 Kbps
Channel(s): 2 channels
Sampling rate: 48.0 KHz
Compression mode: Lossy
Stream size: 68.6 MiB (15%)
Alignment: Aligned on interleaves
Interleave, duration: 42 ms (1.00 video frame)
Interleave, preload duration: 504 ms

Добавлена 10-ая серия. Сезон завершен.
Релиз от:




реклама партнёра


Вернуться к началу
 Профиль Отправить личное сообщение  
 
   Похожие торренты   Автор   Торрент   Размер 
В этой теме нет новых непрочитанных сообщений. Особо Тяжкие Преступления / Major Crimes / 2 сезон 1-19 серии из 19 [драма, криминал, детектив, 2013] HDTVRip, Dvo [DreamRecords]

salma3

20 | 13

8.37 ГБ

В этой теме нет новых непрочитанных сообщений. Любовные преступления / Love Crimes [триллер, мелодрама, 1992] HDTVRip, Dvo

salma3

4 | 3

1.36 ГБ

В этой теме нет новых непрочитанных сообщений. Преступления и проступки / Crimes and Misdemeanors (Вуди Аллен / Woody Allen) [1989г.,арт-хаус, драма, мелодрама, комедия, DVDRip] AVO

Alfredovich

10 | 3

1.45 ГБ

В этой теме нет новых непрочитанных сообщений. Не особо получилось [2014 г., Amateur, CamRip 576p]

friizze

8 | 3

138.85 МБ

В этой теме нет новых непрочитанных сообщений. ПопКорн - Для Особо Одарённых [2011, Punk-Rock, MP3]

PriZraK

0 | 1

109.49 МБ

В этой теме нет новых непрочитанных сообщений. Место преступления: Ник Чиллер / Tatort, Willkommen.in.Hamburg (Кристиан Альварт / Christian Alvart) [2013г., Германия, криминал, драма, боевик, HDTVRip 720] MVO

Alfredovich

51 | 1

2.04 ГБ

В этой теме нет новых непрочитанных сообщений. Особо тяжкое преступление / Felony [триллер, 2013] WEB-DLRip, Avo

salma3

315 | 14

1.48 ГБ


Начать новую тему Ответить на тему  [ 1 сообщение ] 




Для Мосгорсуда, Роскомнадзора и рекламодателей:: mosgorsud-torrent[собачка]yandex.ru