Торрент файл
скачать торрент магнет ссылка Добавлен: 10 дек 2012, 01:23
Размер: 7.98 ГБ
Сидеров: 40
Личеров: 15
Статус: (salma3)
Автор

СообщениеДобавлено: 10 дек 2012, 01:23 

Не в сети
Супермодератор
Аватара пользователя
Дата регистрации:
15 фев 2012, 16:44
Возраст: 27
Спасибо: 5139 / 2089
Сообщения: 17423

Сыны Анархии / Sons of Anarchy /

Год выхода: 2012
Жанр:Драма, криминал
Режиссер: Пэрис Барклай
В ролях: Чарли Ханнэм, Кэти Сагал, Марк Бун Джуниор, Ким Коутс, Томми Флэнаган, Мэгги Сифф, Рон Перлман, Тео Росси, Уильям Лаккинг, Райан Херст и др.

Описание: Сериал рассказывает о клубе байкеров, которые пытаются защитить свой городок от наркотиков и влияния из вне, хотя сами грешат торговлей оружием. Секс, наркотики и рок-н-ролл, любовь, насилие и смысл жизни – вокруг этих проблем бытия закручен сюжет «Сынов».

Страна: США
Студия изготовитель: Fox 21, FX Productions, Linson Entertainment, SutterInk
Продолжительность: 13 x ~ 00:45:00
Перевод: Профессиональный (многоголосый, закадровый) LostFilm



Качество: WEB-DLRip
Формат: AVI
Видео кодек: XviD
Аудио кодек: MP3
Видео: 720x400, 23.976 fps, MPEG-4 ~1500 kbps avg, ~0.22 bit/pixel
Аудио: MP3, 48.0 KHz, 2 ch, 192 Kbps

Добавлена 13-ая серия. Сезон закончен.


01. Самодержец (Sovereign)
02. Властью наделенный (Authority Vested)
03. Выбор мишени (Laying Pipe)
04. Украденный велосипед (Stolen Huffy)
05. Туша вздрогнула (Orca Shrugged)
06. Мир тесен (Small World)
07. Сумасшедшая езда (Toad's Wild Ride)
08. Разрушение (Ablation)
09. Пойти порыбачить (Andare Pescare)
10. Распятый (Crucifixed)
11. Каждому свое (To Thine Own Self)
12. Укол (Darthy)
13. Всё под контролем (J'ai Obtenu Cette)
Формат: AVI
Формат/Информация: Audio Video Interleave
Размер файла: 770 Мбайт
Продолжительность: 1 ч. 1 м.
Общий поток: 1764 Кбит/сек
Программа кодирования: Nandub v1.0rc2
Библиотека кодирования: Nandub build 1853/release

Видео
Идентификатор: 0
Формат: MPEG-4 Visual
Профиль формата: Simple@L3
Параметр BVOP формата: Нет
Параметр QPel формата: Нет
Параметр GMC формата: Без точки перехода
Параметр матрицы формата: Default (H.263)
Идентификатор кодека: XVID
Идентификатор кодека/Подсказка: XviD
Продолжительность: 1 ч. 1 м.
Битрейт: 1564 Кбит/сек
Ширина: 720 пикс.
Высота: 400 пикс.
Соотношение сторон: 16:9
Частота кадров: 23,976 кадр/сек
Цветовое пространство: YUV
Подвыборка цветности: 4:2:0
Битовая глубина: 8 бит
Тип развёртки: Прогрессивная
Метод сжатия: С потерями
Бит/(Пиксели*Кадры): 0.227
Размер потока: 683 Мбайт (89%)
Библиотека кодирования: XviD 1.2.1 (UTC 2008-12-04)

Аудио
Идентификатор: 1
Формат: MPEG Audio
Версия формата: Version 1
Профиль формата: Layer 3
Режим: Joint stereo
Расширение режима: MS Stereo
Идентификатор кодека: 55
Идентификатор кодека/Подсказка: MP3
Продолжительность: 1 ч. 1 м.
Вид битрейта: Переменный
Битрейт: 192 Кбит/сек
Каналы: 2 канала
Частота: 48,0 КГц
Метод сжатия: С потерями
Размер потока: 81,5 Мбайт (11%)
Выравнивание: Соединение по промежуткам
Продолжительность промежутка: 24мс. (0,58 видеокадр)
Время предзагрузки промежутка: 477 ms
Библиотека кодирования: LAME3.97b
Настройки программы: -m j -V 4 -q 3 -lowpass 18.6 --abr 192




реклама партнёра


Вернуться к началу
 Профиль Отправить личное сообщение  
 
   Похожие торренты   Автор   Торрент   Размер 
В этой теме нет новых непрочитанных сообщений. Сыны Анархии / Sons of Anarchy [S01-07] [Драма, криминал, 2008-2014] HDTVRip, WEB-DLRip [LostFilm]

Dracon

317 | 502

54.26 ГБ

В этой теме нет новых непрочитанных сообщений. Сыны Анархии / Sons of Anarchy [07x01 из 13] (Гвинет Хордер-Пэйтон, Стефен Т. Кэй, Гай Ферленд) [2014, Драма, криминал, WEB-DLRip | LostFilm]

Nickolas3435

50 | 23

1.64 ГБ

В этой теме нет новых непрочитанных сообщений. Сыны Анархии / Sons of Anarchy [07x01 из 13] (Гвинет Хордер-Пэйтон, Стефен Т. Кэй, Гай Ферленд) [2014, Драма, криминал, WEB-DLRip 1080p | LostFilm]

Nickolas3435

7 | 5

5.39 ГБ

В этой теме нет новых непрочитанных сообщений. Сыны Анархии / Sons of Anarchy [07x01-11 из 13] (Гвинет Хордер-Пэйтон, Стефен Т. Кэй, Гай Ферленд) [2014, Драма, криминал, WEB-DLRip | Amedia]

Nickolas3435

34 | 171

8.64 ГБ

В этой теме нет новых непрочитанных сообщений. Сыны Анархии / Sons of Anarchy [07x01-03 из 13] (Гвинет Хордер-Пэйтон, Стефен Т. Кэй, Гай Ферленд) [2014, Драма, криминал, WEB-DLRip | Amedia]

Nickolas3435

20 | 61

2.34 ГБ

В этой теме нет новых непрочитанных сообщений. Сыны Анархии / Sons of Anarchy [07x01-12 из 13] (Гвинет Хордер-Пэйтон, Стефен Т. Кэй, Гай Ферленд) [2014, Драма, криминал, WEB-DLRip | Amedia]

Nickolas3435

43 | 170

9.68 ГБ

В этой теме нет новых непрочитанных сообщений. Поглощён Сыны Анархии / Sons of Anarchy [07x01 из 13] (Гвинет Хордер-Пэйтон, Стефен Т. Кэй, Гай Ферленд) [2014, Драма, криминал, WEB-DLRip | Amedia] Данный торрент является блокированным, причина: поглощённый торрент

Nickolas3435

131 | 185

1.66 ГБ


Начать новую тему Ответить на тему  [ 1 сообщение ] 




Для Мосгорсуда, Роскомнадзора и рекламодателей:: mosgorsud-torrent[собачка]yandex.ru