Торрент файл
скачать торрент магнет ссылка Добавлен: 22 ноя 2012, 21:30
Размер: 8.79 ГБ
Сидеров: 27
Личеров: 8
Автор

СообщениеДобавлено: 22 ноя 2012, 21:30 

Не в сети
5 Звёзд
Аватара пользователя
Дата регистрации:
20 апр 2012, 10:59
Возраст: 35
Спасибо: 941 / 102
Сообщения: 1292
Откуда: Москва

Держись, Чарли! / Good Luck Charlie


Год выпуска: 2010
Страна: США
Жанр: Комедия
Продолжительность: 00:22:00
Перевод: полное дублирование (Disney Channel Russia)
Русские субтитры: нет
Субтитры: отсутствуют


Режиссёр: Шелли Дженсен / Shelli Jensen


В ролях: Бриджит Мендлер, Ли Эллин Бэйкер, Брэдли Стивен Перри, Эрик Аллан Крамер, Джейсон Долли, Шэйн Харпер


Описание: После того как мама возвращается к работе медсестры, а папа с головой уходит в свой бизнес, воспитание девочки ложится на плечи ее старшей сестры 15-летней Тедди и братьев — 17-летнего Пи-Джея и 10-летнего Гейба. При этом ребятам приходится сочетать уход за маленькой сестренкой с учебой в школе, одновременно справляясь со всеми трудностями подросткового возраста.

Релиз:


Семпл: Скачать


MI
Good.Luck.Charlie.2x03.WEB-DLRip.Rus.[www.Riper.AM].avi
Format : AVI
Format/Info : Audio Video Interleave
File size : 300 MiB
Duration : 22mn 18s
Overall bit rate : 1 879 Kbps
Writing application : VirtualDubModRus 1.5.10.1 (build 2439/release)
Writing library : VirtualDubMod build 2439/release
Video
ID : 0
Format : MPEG-4 Visual
Format profile : Advanced Simple@L5
Format settings, BVOP : 2
Format settings, QPel : No
Format settings, GMC : No warppoints
Format settings, Matrix : Default (MPEG)
Codec ID : XVID
Codec ID/Hint : XviD
Duration : 22mn 18s
Bit rate : 1 677 Kbps
Width : 720 pixels
Height : 400 pixels
Display aspect ratio : 16:9
Frame rate : 23.976 fps
Color space : YUV
Chroma subsampling : 4:2:0
Bit depth : 8 bits
Scan type : Progressive
Compression mode : Lossy
Bits/(Pixel*Frame) : 0.243
Stream size : 268 MiB (89%)
Writing library : XviD 1.2.1 (UTC 2008-12-04)
Audio
ID : 1
Format : AC-3
Format/Info : Audio Coding 3
Mode extension : CM (complete main)
Codec ID : 2000
Duration : 22mn 18s
Bit rate mode : Constant
Bit rate : 192 Kbps
Channel(s) : 2 channels
Channel positions : Front: L R
Sampling rate : 48.0 KHz
Bit depth : 16 bits
Compression mode : Lossy
Stream size : 30.6 MiB (10%)
Alignment : Split accross interleaves
Interleave, duration : 42 ms (1.00 video frame)
Interleave, preload duration : 500 ms






Качество: WEB-DLRip
Формат: AVI
Видео кодек: XviD
Аудио кодек: AC3
Видео: 720x400 (1.80:1), 23.976 fps, XviD build 50 ~1677 kbps avg, 0.24 bit/pixel
Аудио: 48 kHz, AC3 Dolby Digital, 2/0 (L,R) ch, ~192 kbps




реклама партнёра


Вернуться к началу
 Профиль Отправить личное сообщение  
 
   Похожие торренты   Автор   Торрент   Размер 
В этой теме нет новых непрочитанных сообщений. Добрая ведьма / Good Witch / 1 сезон: 1-10 серии из 10 [фэнтези, драма, комедия, 2015] WEB-DLRip, Avo

salma3

34 | 18

7.32 ГБ

В этой теме нет новых непрочитанных сообщений. Тайны острова Мако / Mako Mermaids / 1 сезон 1-26 серии из 26 [фэнтези, комедия, приключения, 2013] WEB-DLRip, Dub [Disney]

salma3

50 | 34

8.61 ГБ

В этой теме нет новых непрочитанных сообщений. Погоня за красотой / Bad Hair Day (Эрик Кануэль) [Комедия, Приключения, 2015] WEB-DLRip, Dub [Канал Disney]

Dracon

38 | 1

1.37 ГБ

В этой теме нет новых непрочитанных сообщений. Ангелы Чарли / Charlie's Angels [боевик, комедия, приключения, криминал, 2000] Blu-Ray, Dub+Mvo+Avo+Sub

salma3

1 | 4

29.82 ГБ

В этой теме нет новых непрочитанных сообщений. Чарли / Charlie [Драма, триллер, 2015] HDRip, Mvo [SDI Media]

salma3

12 | 1

1.45 ГБ

В этой теме нет новых непрочитанных сообщений. Ферма Чарли / Charlie's Farm (Крис Сан) [ужасы, 2014] HDRip, avo

Dracon

1671 | 84

1.45 ГБ

В этой теме нет новых непрочитанных сообщений. Ферма Чарли / Charlie's Farm (Крис Сан) [Ужасы, 2014] BDRemux 1080p, avj

Dracon

22 | 8

21.75 ГБ


Начать новую тему Ответить на тему  [ 1 сообщение ] 




Для Мосгорсуда, Роскомнадзора и рекламодателей:: mosgorsud-torrent[собачка]yandex.ru