Торрент файл
скачать торрент магнет ссылка Добавлен: 19 ноя 2012, 19:00
Размер: 4.15 ГБ
Сидеров: 4
Личеров: 7
Статус: (salma3)
Автор

СообщениеДобавлено: 19 ноя 2012, 19:00 

Не в сети
Супермодератор
Аватара пользователя
Дата регистрации:
15 фев 2012, 16:44
Возраст: 27
Спасибо: 5146 / 2090
Сообщения: 17514

Последний Чаптер / The Last Chapter /

Год выхода: 2002
Жанр:Драма, криминал
Режиссер: Рой Ричард
В ролях: Рой Дюпюи, Селин Бонье, Майкл Айронсайд, Фанни Ла Круа, Марина Орсини и др.

Описание: Жестокий мир байкеров в котором бок о бок идут братство и кровная вражда, любовь и ненависть, семейные ценности и безжалостные убийства. Любовь к брату перерастающая в ненависть к врагу. Жизнь в байк клубе и борьба за выживание каждый день как единственно возможный способ существования. Бизнес, строящийся на крови всех кто стоит на пути, амбиции убивающие все человечное, превращающие человека в жестокого хищника, готового на все.

Сэмпл
Страна: Канада
Продолжительность: 06 x ~ 00:45:00
Перевод: Любительская (двухголосая закадровая)

Качество: DVDRip
Формат: AVI
Видео кодек: XviD
Аудио кодек: AC3
Видео: 640x352, 29.970fps, ~1750Kbps, ~0.262 Бит/(Пиксели*Кадры)
Аудио Rus: 48.0 KHz, 2 ch, 192 Kbps
Аудио Eng: 48.0 KHz, 2 ch, 192 Kbps

Формат: AVI
Формат/Информация: Audio Video Interleave
Размер файла: 704 Мбайт
Продолжительность: 45 м.
Общий поток: 2168 Кбит/сек
Программа кодирования: VirtualDubModRus 1.5.10.2 (build 2542/release)
Библиотека кодирования: VirtualDubMod build 2542/release

Видео
Идентификатор: 0
Формат: MPEG-4 Visual
Профиль формата: Advanced Simple@L5
Параметр BVOP формата: 2
Параметр QPel формата: Нет
Параметр GMC формата: Без точки перехода
Параметр матрицы формата: Default (H.263)
Режим смешивания: Сжатый битовый поток
Идентификатор кодека: XVID
Идентификатор кодека/Подсказка: XviD
Продолжительность: 45 м.
Битрейт: 1766 Кбит/сек
Ширина: 640 пикс.
Высота: 352 пикс.
Соотношение сторон: 16:9
Частота кадров: 29,970 кадр/сек
Цветовое пространство: YUV
Подвыборка цветности: 4:2:0
Битовая глубина: 8 бит
Тип развёртки: Прогрессивная
Метод сжатия: С потерями
Бит/(Пиксели*Кадры): 0.262
Размер потока: 573 Мбайт (81%)
Библиотека кодирования: XviD 1.2.1 (UTC 2008-12-04)

Аудио #1
Идентификатор: 1
Формат: AC-3
Формат/Информация: Audio Coding 3
Расширение режима: CM (complete main)
Идентификатор кодека: 2000
Продолжительность: 45 м.
Вид битрейта: Постоянный
Битрейт: 192 Кбит/сек
Каналы: 2 канала
Расположение каналов: Front: L R
Частота: 48,0 КГц
Битовая глубина: 16 бит
Метод сжатия: С потерями
Размер потока: 62,3 Мбайт (9%)
Выравнивание: Разделение по промежуткам
Продолжительность промежутка: 33мс. (1,00 видеокадр)
Время предзагрузки промежутка: 500 ms

Аудио #2
Идентификатор: 2
Формат: AC-3
Формат/Информация: Audio Coding 3
Расширение режима: CM (complete main)
Идентификатор кодека: 2000
Продолжительность: 45 м.
Вид битрейта: Постоянный
Битрейт: 192 Кбит/сек
Каналы: 2 канала
Расположение каналов: Front: L R
Частота: 48,0 КГц
Битовая глубина: 16 бит
Метод сжатия: С потерями
Размер потока: 62,3 Мбайт (9%)
Выравнивание: Разделение по промежуткам
Продолжительность промежутка: 33мс. (1,00 видеокадр)
Время предзагрузки промежутка: 500 ms
Перевод: toha_hippy
Редактура: toha_hippy
Озвучка: kiitos, Chertenok
Монтаж и сведение звука: kiitos




реклама партнёра


Вернуться к началу
 Профиль Отправить личное сообщение  
 
   Похожие торренты   Автор   Торрент   Размер 
В этой теме нет новых непрочитанных сообщений. Ищейка / The closer / 6 сезон 1-15 серии из 15 [драма, криминал, детектив, 2010] DVDRip, Mvo

salma3

47 | 13

6.59 ГБ

В этой теме нет новых непрочитанных сообщений. Элитный отряд / Flics / 1 сезон 1-4 серии из 4 [криминал, драма, 2008] DVDRip, Mvo

salma3

6 | 3

2.42 ГБ

В этой теме нет новых непрочитанных сообщений. Фрейзер / Frasier / 9 сезон 1-24 серии из 24 [комедия, 2001-2002] DVDRip, Dvo [ViruseProject]

salma3

1 | 3

4.14 ГБ

В этой теме нет новых непрочитанных сообщений. Последний настоящий мужчина / Last Man Standing / 3 сезон 1-22 серии из 22 [Комедия, 2013] WEB-DLRip, dub [Paramount Comedy]

salma3

25 | 12

5.06 ГБ

В этой теме нет новых непрочитанных сообщений. Проклятый сезон / Dark Blue [триллер, драма, криминал, 2002] BDRip 720p, Dub+Avo+Sub

salma3

41 | 8

4.26 ГБ

В этой теме нет новых непрочитанных сообщений. Леди-детектив мисс Фрайни Фишер / Miss Fisher's Murder Mysteries / 2 сезон 1-13 серии из 13 [драма, криминал, детектив, 2012] DVDRip, Mvo

salma3

145 | 54

5.43 ГБ

В этой теме нет новых непрочитанных сообщений. Мажор (2 сезон: 1-12 серии из 12) [криминал, драма, детектив, 2016] WEB-DLRip-AVC

salma3

740 | 1329

8.61 ГБ


Начать новую тему Ответить на тему  [ 1 сообщение ] 




Для Мосгорсуда, Роскомнадзора и рекламодателей:: mosgorsud-torrent[собачка]yandex.ru