Торрент файл
скачать торрент магнет ссылка Добавлен: 21 дек 2013, 13:33
Размер: 30.31 ГБ
Сидеров: 7
Личеров: 10
Автор

СообщениеДобавлено: 12 окт 2012, 18:28 

Не в сети
2 Звезды
Аватара пользователя
Дата регистрации:
10 окт 2010, 20:23
Возраст: 61
Спасибо: 179 / 0
Сообщения: 323
Откуда: КРАСНОГОРСК
Родина / Чужой среди своих / Homeland




Год выпуска: 2012-2013
Выпущено: США,
Жанр: Триллер, драма, криминал, детектив
Авторы идеи: Говард Гордон, Алекс Ганза, Гидеон Рэфф
Продолжительность: 00:55:00
Сезон: 2-3
Серии: 1-24
Количество серий в сезоне: 24
Озвучка:Профессиональный многоголосый закадровый(LostFilm)
Субтитры: Нет

Сайт сериала:



Режиссер: Майкл Куэста, Кларк Джонсон, Джеффри Начманофф

В ролях: Клэр Дэйнс, Дамиан Льюис, Морена Баккарин, Дэвид Хэрвуд, Диего Клаттенхофф, Джексон Паке, Моргон Сэйлор, Мэнди Пэтинкин, Дэвид Марсиано, Навид Негабан и др.

Описание: Аналитик ЦРУ Кэрри Мэтисон во время операции в Ираке выясняет, что американский военнопленный завербован Аль-Каедой. Вскоре после этого отряд спецназа Дельта во время зачистки обнаруживает сержанта морской пехоты Николаса Броуди, который числился пропавшим без вести с 2003-го года. Понимая, что доказать виновность Броуди будет практически невозможно, Кэрри обращается за помощью к своему наставнику Солу Беренсону. Вместе они будут вести расследование, чтобы предотвратить очередной теракт на территории США.

Качество : WEB-DLRip-AVC 720p
Формат: MPEG-4
Видео кодек: H264
Видео: 3111Кбит/сек,1280х720(16.9),в 25.000кадр/сек,AVC(Baseline@L3.1)(1Ref Frames)
Аудио кодек: AAC
Аудио Russian Dolby Digital 5.1:456Кбит/сек,44.1КГц,6каналов,AAC,(Version4)(LC)

Звуковая дорожка сделана путем наложения чистого голоса озвучивателей на центральный канал оригинальной дорожки. Качество идентично звуковой дорожке.



Список эпизодов 2 сезона
01 Улыбка (The Smile)
02 Снова Бейрут (Beirut Is Back)
03 Штат независимости (State of Independence)
04 Запах новой машины (New Car Smell)
05 Вопросы и ответы (Q&A)
06 Адрес в Геттисбурге (A Gettysburg Address)
07 Поляна (The Clearing)
08 Улечу я далеко (I'll Fly Away)
09 Совместитель (Two Hats)
10 Разбитые сердца (Broken Hearts)
11 Светлая память (In Memoriam)
12 Выбор (The Choice)


Список эпизодов 3сезона
01 Железный дровосек мёртв (Tin Man Is Down)
02 Ух... ох... ах... (Uh... Oh... Ah...)
03 Башня Давида (Tower of David)
04 Игра началась (Game On)
05 Приём с йогой (The Yoga Play)
06 Ещё в деле (Still Positive)
07 Стариканус (Gerontion)
08 Красная тачка (A Red Wheelbarrow)
09 Последний раз (One Last Time)
10 Спокойной ночи (Good Night)
11 Большой человек в Тегеране (Big Man in Tehran)
12 Звезда (The Star)





General
Полное имя : F:\Новая папка (3)\Homeland_2012_-_2013_S02_-_S03_rus[LostFilm.TV]_DD5.1_x264_Nikolai.Baranov_WEB-DLRip-AVC_(720p)\S02\Homeland_2012_S02E01_rus[LostFilm.TV]_DD5.1_x264_Nikolai.Baranov_WEB-DLRip-AVC_(720p).mp4
Формат : MPEG-4
Профиль формата : Base Media
Идентификатор кодека : isom
Размер файла : 1.38 GiB
Продолжительность : 55mn 20s
Режим общего битрейта : Variable
Общий поток : 3 571 Kbps
Дата кодирования : UTC 2012-10-11 16:54:08
Дата пометки : UTC 2012-10-11 16:54:08
Программа кодирования : Lavf51.12.1

Video
Идентификатор : 1
Формат : AVC
Формат/Информация : Advanced Video Codec
Профиль формата : Baseline@L3.1
Параметр CABAC формата : No
Параметр ReFrames формата : 1 frame
Параметр GOP формата : M=1, N=12
Идентификатор кодека : avc1
Идентификатор кодека/Информация : Advanced Video Coding
Продолжительность : 55mn 20s
Вид битрейта : Variable
Битрейт : 3 111 Kbps
Максимальный битрейт : 4 500 Kbps
Ширина : 1 280 pixels
Высота : 720 pixels
Соотношение сторон : 16:9
Режим частоты кадров : Constant
Частота кадров : 25.000 fps
Частота кадров в оригинале : 24.000 fps
Цветовое пространство : YUV
Субдискретизация насыщенности : 4:2:0
Битовая глубина : 8 bits
Тип развёртки : Progressive
Бит/(Пиксели*Кадры) : 0.135
Размер потока : 1.20 GiB (87%)
Дата кодирования : UTC 2012-10-11 16:54:08
Дата пометки : UTC 2012-10-11 16:54:08

Audio
Идентификатор : 2
Формат : AAC
Формат/Информация : Advanced Audio Codec
Профиль формата : LC
Идентификатор кодека : 40
Продолжительность : 55mn 20s
Вид битрейта : Variable
Битрейт : 456 Kbps
Каналы : 6 channels
Расположение каналов : Front: L C R, Side: L R, LFE
Частота : 44.1 KHz
Метод сжатия : Lossy
Размер потока : 180 MiB (13%)
Дата кодирования : UTC 2012-10-11 16:54:08
Дата пометки : UTC 2012-10-11 16:54:08


General
Полное имя : F:\Новая папка (3)\Homeland_2012_-_2013_S02_-_S03_rus[LostFilm.TV]_DD5.1_x264_Nikolai.Baranov_WEB-DLRip-AVC_(720p)\S03\Homeland_2013_S03E01_rus[LostFilm.TV]_DD5.1_x264_Nikolai.Baranov_WEB-DLRip-AVC_(720p).mp4
Формат : MPEG-4
Профиль формата : Base Media
Идентификатор кодека : isom
Размер файла : 1.34 GiB
Продолжительность : 58mn 14s
Режим общего битрейта : Variable
Общий поток : 3 304 Kbps
Дата кодирования : UTC 2013-10-02 09:15:41
Дата пометки : UTC 2013-10-02 09:15:41
Программа кодирования : Lavf51.12.1

Video
Идентификатор : 1
Формат : AVC
Формат/Информация : Advanced Video Codec
Профиль формата : Baseline@L3.1
Параметр CABAC формата : No
Параметр ReFrames формата : 1 frame
Параметр GOP формата : M=1, N=12
Идентификатор кодека : avc1
Идентификатор кодека/Информация : Advanced Video Coding
Продолжительность : 58mn 14s
Вид битрейта : Variable
Битрейт : 3 046 Kbps
Максимальный битрейт : 4 500 Kbps
Ширина : 1 280 pixels
Высота : 720 pixels
Соотношение сторон : 16:9
Режим частоты кадров : Constant
Частота кадров : 25.000 fps
Частота кадров в оригинале : 24.000 fps
Цветовое пространство : YUV
Субдискретизация насыщенности : 4:2:0
Битовая глубина : 8 bits
Тип развёртки : Progressive
Бит/(Пиксели*Кадры) : 0.132
Размер потока : 1.24 GiB (92%)
Дата кодирования : UTC 2013-10-02 09:15:41
Дата пометки : UTC 2013-10-02 09:15:41

Audio
Идентификатор : 2
Формат : AAC
Формат/Информация : Advanced Audio Codec
Профиль формата : LC
Идентификатор кодека : 40
Продолжительность : 58mn 14s
Вид битрейта : Variable
Битрейт : 254 Kbps
Каналы : 6 channels
Расположение каналов : Front: L C R, Side: L R, LFE
Частота : 44.1 KHz
Метод сжатия : Lossy
Размер потока : 106 MiB (8%)
Дата кодирования : UTC 2013-10-02 09:15:41
Дата пометки : UTC 2013-10-02 09:15:41












2сезон

3сезон


1. Открыть торрент
2. Снять галки с тех файлов торрента, которые мы не хотим закачивать. Оставляем только на нужных нам файлах (файле).
3. Нажать О.К.

В клиенте utorrent

Инструкция

1) Открыть торрент


2) Снять галки с тех файлов торрента, которые мы не хотим закачивать:

* либо вручную, снимая с каждого файла галку( скрин №1)
* либо, нажав кнопку "Снять метки (Select None)", сняв сразу со всех файлов(скрин №2)
№1

№2

Оставляем только на нужных нам файлах (файле).

3)Нажать О.К



Внимание!!! 21.12. 2013. РАЗДАЧА ОБНОВЛЕНА.ОБНОВИТЕ ТОРЕНТ ФАЙЛ.ПРИЯТНОГО ПРОСМОТРА .

Релиз от: Nikolai.Baranov







_________________

Легко быть оптимистом, когда судьба не валит с ног тяжелыми ударами, а лишь иногда легонько шлепает по заднице.



реклама партнёра


Вернуться к началу
 Профиль Отправить личное сообщение  
 
   Похожие торренты   Автор   Торрент   Размер 
В этой теме нет новых непрочитанных сообщений. Чужой среди своих / Родина / Homeland (Сезон 2-4, Серии 1-28 из 36) [2012-2014, Триллер, драма, криминал, детектив , WEBDLRip-AVC 720р] [MVO] (LostFilm)

Враг Нароода

В этой теме нет новых непрочитанных сообщений. Чужой среди своих / Родина / Homeland [S04] [Триллер, драма, детектив, 2014] WEB-DLRip 1080p [LostFilm]

Dracon

128 | 80

24.62 ГБ

В этой теме нет новых непрочитанных сообщений. Чужой среди своих / Родина / Homeland [04x01-12 из 12] [2014, Триллер, драма, детектив, WEB-DLRip | Amedia]

Nickolas3435

238 | 120

7.65 ГБ

В этой теме нет новых непрочитанных сообщений. Чужой среди своих / Родина / Homeland [04x01-07 из 12] (Майкл Куэста) [2014, Триллер, драма, детектив, WEB-DLRip | Amedia]

Nickolas3435

68 | 88

4.5 ГБ

В этой теме нет новых непрочитанных сообщений. Чужой среди своих / Родина / Homeland [04x01-06 из 12] (Майкл Куэста) [2014, Триллер, драма, детектив, WEB-DLRip | Amedia]

Nickolas3435

75 | 106

3.83 ГБ

В этой теме нет новых непрочитанных сообщений. Родина (Чужой среди своих) / Homeland [Seasons 4 episode 12 of 12] [Драма, Триллер, 2014] WEB-DL 720p [Студия Пифагор по заказу Amedia]

Dracon

71 | 36

19.68 ГБ

В этой теме нет новых непрочитанных сообщений. Родина / Homeland [S05] (Джек Бендер) [2015, Триллер, драма, криминал, детектив, WEB-DLRip | LostFilm]

Dracon

780 | 711

7.61 ГБ


Начать новую тему Ответить на тему  [ 1 сообщение ] 




Для Мосгорсуда, Роскомнадзора и рекламодателей:: mosgorsud-torrent[собачка]yandex.ru