Торрент файл
скачать торрент магнет ссылка Добавлен: 04 окт 2012, 20:43
Размер: 8.81 ГБ
Сидеров: 90
Личеров: 47
Статус: (Dracon)
Автор

СообщениеДобавлено: 04 окт 2012, 20:43 

Не в сети
Зам. Админа
Аватара пользователя
Дата регистрации:
02 дек 2010, 12:39
Спасибо: 12460 / 214
Сообщения: 27968


Год выпуска: 2012
Жанр:Комедия, мелодрама
Режиссёр: Виталий Павлов
В ролях: Ирина Пегова, Дмитрий Фрид, Виктория Богатырева, Василий Бочкарёв, Анна Антонова, Михаил Шульц, Юрий Сазонов, Олеся Лагута, Мария Серёгина, Владимир Воробьёв (II), Сергей Данилевич, Соня Реснянская, Наталья Карпунина

Описание:
Маше немного за тридцать. Она не красавица, личная жизнь не устроена. За плечами - 10 лет парикмахерского стажа, а в кармане - диплом новоиспеченного юриста. Но нет ничего невозможного, если ты полна оптимизма и веры в справедливость! После многочисленных отказов в юридических конторах, Маша решает открыть свое собственное юридическое агентство. Она арендует в торговом центре пару квадратных метров, на которых располагает свой мобильный офис - стол и два стула, и вешает табличку «Мария Пирогова – юридические услуги». Клиенты и их «дела» не заставляют себя ждать...



Производство: Россия, Украина, Star Media
Продолжительность: 16x ~00:48:00

Доп.информация: Реклама отсутствует!

Качество: SATRip
Формат: AVI
Видео кодек: XviD
Аудио кодек: MP3
Видео: ~1500 Кбит/с, 704x400, 25 кадр/с
Аудио: MP3, 48000 Гц, 128 Кбит/с, 2 канала (Стерео)


Код:
General
Complete name: Masha.v.zakone.01.seriya.iz.16.2012.SATRip.avi
Format: AVI
Format/Info: Audio Video Interleave
File size: 554 MiB
Duration: 47mn 5s
Overall bit rate: 1 644 Kbps
Movie name: Маша в законе! (2012) SATRip
Recorded date: 11.09.2012
Writing application: VirtualDubMod 1.5.10.3 (build 2550/release)
Writing library: VirtualDubMod build 2550/release
Copyright: rip by ivandubskoj

Video
ID: 0
Format: MPEG-4 Visual
Format profile: Advanced Simple@L5
Format settings, BVOP: 1
Format settings, QPel: No
Format settings, GMC: No warppoints
Format settings, Matrix: Default (MPEG)
Codec ID: XVID
Codec ID/Hint: XviD
Duration: 47mn 5s
Bit rate: 1 508 Kbps
Width: 704 pixels
Height: 400 pixels
Display aspect ratio: 16:9
Frame rate: 25.000 fps
Color space: YUV
Chroma subsampling: 4:2:0
Bit depth: 8 bits
Scan type: Progressive
Compression mode: Lossy
Bits/(Pixel*Frame): 0.214
Stream size: 507 MiB (92%)
Writing library: XviD 1.2.1 (UTC 2008-12-04)

Audio
ID: 1
Format: MPEG Audio
Format version: Version 1
Format profile: Layer 3
Mode: Joint stereo
Mode extension: MS Stereo
Codec ID: 55
Codec ID/Hint: MP3
Duration: 47mn 5s
Bit rate mode: Constant
Bit rate: 128 Kbps
Channel(s): 2 channels
Sampling rate: 48.0 KHz
Compression mode: Lossy
Stream size: 43.1 MiB (8%)
Alignment: Aligned on interleaves
Interleave, duration: 40 ms (1.00 video frame)
Interleave, preload duration: 504 ms
Title: Russian
Writing library: LAME3.99.1

Автор Rip'а - ivandubskoj




реклама партнёра


Вернуться к началу
 Профиль  
 
   Похожие торренты   Автор   Торрент   Размер 
В этой теме нет новых непрочитанных сообщений. Папа в законе [01-04 из 04] [Мелодрама, 2014] SATRip

Dracon

93 | 6

2.1 ГБ

В этой теме нет новых непрочитанных сообщений. Мама в законе [01-04 из 04] [Мелодрама, 2014] SATRip

Dracon

241 | 7

2.01 ГБ

В этой теме нет новых непрочитанных сообщений. Маша и Медведь творят что хотят... [2012 г., Teen, Young, Blowjob, All Sex, Hardcore, SATRip]

Dievas2

9 | 4

362.71 МБ

В этой теме нет новых непрочитанных сообщений. Маша и медведи - Конец (EP) [12.2012, Rock, MP3]

PriZraK

3 | 2

23.44 МБ

В этой теме нет новых непрочитанных сообщений. Мент в законе 8 [01-24 из 24] [Детектив, 2014] SATRip

Dracon

2 | 5

14.75 ГБ

В этой теме нет новых непрочитанных сообщений. Стеснительная девочка Маша из Новосибирска [2012 г., Amateur, Web-Cam, CamRip]

friizze

7 | 5

280.82 МБ

В этой теме нет новых непрочитанных сообщений. Маша и Медведи - Полная коллекция хитов [2012, Rock, MP3]

PriZraK

13 | 2

389.49 МБ


Начать новую тему Ответить на тему  [ 1 сообщение ] 




Для Мосгорсуда, Роскомнадзора и рекламодателей:: mosgorsud-torrent[собачка]yandex.ru