Торрент файл
скачать торрент магнет ссылка Добавлен: 01 окт 2012, 00:45
Размер: 1.84 ГБ
Сидеров: 1
Личеров: 3
Статус: (PriZraK)
Автор

СообщениеДобавлено: 01 окт 2012, 00:45 

Не в сети
Администратор
Дата регистрации:
08 апр 2010, 18:00
Спасибо: 1075 / 220
Сообщения: 17131
Год выпуска: 2012
Страна: Турция
Производство: Türkiye
Жанр: сериал
Серии(количество): 64 (?)
Продолжительность серии: около 110 минут
Субтитры: русские не отключаемые
Режиссёр: Тайлан Бирадерлер / Taylan Biraderler

В ролях: Мерьем Узерли, Халит Эргенч, Окан Ялыбык / Meryem Uzerli, Halit Ergenç, Okan Yalabık

Описание: Сериал «Великолепный век» вдохновлён реальными событиями, произошедшими во времена правления султана Сулеймана Великолепного, величайшего полководца и реформатора Османской империи.
Сериал повествует о наиболее заметных событиях правления султана и о его взаимоотношениях с наложницей славянского происхождения Александрой (Роксоланой), принявшей ислам и получившей имя Хюррем. Османы взяли её в плен во времена набега крымских татар на Дикое поле (нынешняя территория Украины) примерно в 1520 году. Александра была подарена султану Сулейману будущим визирем Ибрагимом-пашой. Чтобы реализовать свои амбиции в султанате, Хюррем устраняет всех, кто ей может в этом помешать.

Видео: XviD, ~2250Кбит/с, 16:9, 1920x1080
Аудио: MP3 44,1КГц, 2 канала, 128Кбит/с
MI
64 серия
Код:
Общее
Полное имя: Великолепный век Full HD(субтитры)\64 серия.avi
Формат: AVI
Формат/Информация: Audio Video Interleave
Размер файла: 1,84 Гбайт
Продолжительность: 1 ч. 50 м.
Общий поток: 2389 Кбит/сек
Программа кодирования: Lavf52.54.0
Библиотека кодирования: VirtualDub build 34703/release
Видео
Идентификатор: 0
Формат: MPEG-4 Visual
Профиль формата: Advanced Simple@L5
Параметр BVOP формата: 2
Параметр QPel формата: Нет
Параметр GMC формата: Без точки перехода
Параметр матрицы формата: Default (H.263)
Режим смешивания: Сжатый битовый поток
Идентификатор кодека: XVID
Идентификатор кодека/Подсказка: XviD
Продолжительность: 1 ч. 50 м.
Битрейт: 2249 Кбит/сек
Ширина: 1920 пикселей
Высота: 1080 пикселей
Соотношение сторон: 16:9
Частота кадров: 25,000 кадров/сек
Цветовое пространство: YUV
Субдискретизация насыщенности: 4:2:0
Битовая глубина: 8 бит
Тип развёртки: Прогрессивная
Метод сжатия: С потерями
Бит/(Пиксели*Кадры): 0.043
Размер потока: 1,73 Гбайт (94%)
Библиотека кодирования: XviD 1.2.1 (UTC 2008-12-04)
Аудио
Идентификатор: 1
Формат: MPEG Audio
Версия формата: Version 1
Профиль формата: Layer 3
Режим: Joint stereo
Расширение режима: MS Stereo
Идентификатор кодека: 55
Идентификатор кодека/Подсказка: MP3
Продолжительность: 1 ч. 50 м.
Вид битрейта: Постоянный
Битрейт: 128 Кбит/сек
Каналы: 2 канала
Частота: 44,1 КГц
Метод сжатия: С потерями
Размер потока: 101 Мбайт (5%)
Выравнивание: Соединение по промежуткам
Продолжительность промежутка: 26мс. (0,65 видеокадр)
Время предзагрузки промежутка: 522мс.
Скриншоты
64 серия




реклама партнёра


Вернуться к началу
 Профиль Отправить личное сообщение  
 
   Похожие торренты   Автор   Торрент   Размер 
В этой теме нет новых непрочитанных сообщений. Великолепный век / Muhtesem Yuzyil [S01-04] (Ягмур Тайлан, Дурул Тайлан)[2011-2014, Ягмур Тайлан, Дурул Тайлан, WEB-DLRip | ТК Домашний]

Nickolas3435

105 | 358

150.43 ГБ

В этой теме нет новых непрочитанных сообщений. Великолепный век. Империя Кёсем / Muhteşem Yüzyıl. Kösem [01x01-16] [Исторический, драма, мелодрама, биография, 2015-2016] WEB-DLRip, Avo

salma3

169 | 777

23.84 ГБ

В этой теме нет новых непрочитанных сообщений. Великолепный век. Империя Кёсем / Muhteşem Yüzyıl. Kösem [01x01] (Зейнеп Гюнай Тан, Мерт Бакал, Ягыз Алп Акайдын) [2015, Исторический, драма, мелодрама, биография, WEB-DL 1080p]

Dracon

69 | 5

3.49 ГБ

В этой теме нет новых непрочитанных сообщений. Великолепный век. Империя Кёсем / Muhteşem Yüzyıl. Kösem [01x01-02] (Зейнеп Гюнай Тан, Мерт Бакал, Ягыз Алп Акайдын) [2015, Исторический, драма, мелодрама, биография, WEB-DLRip 720p]

Dracon

64 | 43

6.16 ГБ

В этой теме нет новых непрочитанных сообщений. Великолепный век. Империя Кёсем / Muhteşem Yüzyıl. Kösem [01x01] (Зейнеп Гюнай Тан, Мерт Бакал, Ягыз Алп Акайдын) [2015, Исторический, драма, мелодрама, биография, WEB-DLRip 720p]

Dracon

84 | 12

3.07 ГБ

В этой теме нет новых непрочитанных сообщений. Великолепный век. Империя Кёсем / Muhteşem Yüzyıl. Kösem [01x01-02] (Зейнеп Гюнай Тан, Мерт Бакал, Ягыз Алп Акайдын, Дэниз Колош) [2015, Исторический, драма, мелодрама, биография, WEB-DLRip]

Dracon

263 | 118

3.41 ГБ

В этой теме нет новых непрочитанных сообщений. Великолепный век / Muhtesem Yuzyil / 4 сезон 1-21 серии из ??? [история, драма, мелодрама, военный, биография, 2013] WEB-DLRip, Avo

salma3

4 | 6

29.32 ГБ


Начать новую тему Ответить на тему  [ 1 сообщение ] 




Для Мосгорсуда, Роскомнадзора и рекламодателей:: mosgorsud-torrent[собачка]yandex.ru