Торрент файл
скачать торрент магнет ссылка Добавлен: 17 сен 2012, 02:39
Размер: 9 ГБ
Сидеров: 3
Личеров: 6
Автор

СообщениеДобавлено: 17 сен 2012, 02:39 

Не в сети
Супермодератор
Аватара пользователя
Дата регистрации:
22 май 2010, 11:03
Возраст: 31
Спасибо: 7509 / 13
Сообщения: 49940
Хранилище 13/ Ангар 13, 4 сезон 1-6 серии из 20 / Warehouse 13
Перевод: Профессиональный (многоголосый, закадровый), cубтитры: отсутствуют
Формат: WEB-DLRip, MKV, H.264, AC3
Страна: США
Режиссер: Джек Кенни
Жанр: Фантастика, триллер, драма, детектив
Озвучка: LostFilm
Всего серий: 20
Продолжительность: 6 х 00:42
Год выпуска: 2012
В ролях: Эдди МакКлинток Джоэнн Келли Сол Рубинек Дженелл Уильямс Эллисон Скальотти Си Си Эйч Паундер Саймон Рейнольдс Аарон Эшмор Джейми Мюррэй Саша Ройз
Описание: После спасения жизни президента двух агентов Секретной службы переводят на секретный объект в штате Южная Дакота. Там содержатся сверхъестественные вещи, которые правительство США собирало в течение столетий. Их новое задание — вернуть часть пропавших вещей и расследовать сообщения о новых.
Рейтинг на :
Видео:1280х720, (16/9), 23,976 fps, V_MPEG4/ISO/AVC, , ~4626 kbps avg, 0.209 bit/pixel
Аудио: RUS#48 kHz, AC3 Dolby Digital, 2/0 (L,R) ch, ~192 kbps avg
Аудио: ENG#48 kHz, AC3 Dolby Digital, 2/0 (L,R) ch, ~384 kbps avg
слоган «У необъяснимого есть адрес»
Режиссер Тауния Маккирнан, Константин Макрис, Стивен Серджик
Сценарий Джейн Эспенсон, Эндрю Крейсберг, Нелл Шовелл
Продюсер Дрю З. Гринберг, Сиан МакАртур, Холли Харольд
Оператор Дерик В. Ундершульц, Майкл МакМюррей, Дэвид Херрингтон
Композитор Эдвард Роджерс
Художник Франко Де Котиис, Питер Гранди, Мишель Брэйди
Монтаж Джон Питер Бернардо, Джон Хит, Гарри Б. Миллер III







Общее
Уникальный идентификатор: 173993431673856384995414115713025663331 (0x82E5EA803437E453B24188C98C796163)
Полное имя: D:\Раздачи_для_[tfile.ru]\Warehouse_13_s04_[tfile.ru]\Warehouse_13_s04e01_[tfile.ru].mkv
Формат: Matroska
Версия формата: Version 2
Размер файла: 1,55 Гбайт
Продолжительность: 42 м.
Общий поток: 5205 Кбит/сек
Дата кодирования: UTC 2012-07-27 23:14:08
Программа кодирования: mkvmerge v5.7.0 ('The Whirlwind') built on Jul8 2012 20:08:51
Библиотека кодирования: libebml v1.2.3 + libmatroska v1.3.0
Видео
Идентификатор: 1
Формат: AVC
Формат/Информация: Advanced Video Codec
Профиль формата:
Параметр CABAC формата: Да
Параметр ReFrames формата: 4 кадра
Идентификатор кодека: V_MPEG4/ISO/AVC
Продолжительность: 42 м.
Битрейт: 4626 Кбит/сек
Ширина: 1280 пикселей
Высота: 720 пикселей
Соотношение сторон: 16:9
Частота кадров: 23,976 кадра/сек
Цветовое пространство: YUV
Субдискретизация насыщенности: 4:2:0
Битовая глубина: 8 бит
Тип развёртки: Прогрессивная
Бит/(Пиксели*Кадры): 0.209
Размер потока: 1,35 Гбайт (87%)
Библиотека кодирования: x264 core 112 r1834 a51816a
Настройки программы: cabac=1 / ref=1 / deblock=1:0:0 / analyse=0x3:0x113 / me=hex / subme=7 / psy=1 / psy_rd=1.00:0.00 / mixed_ref=0 / me_range=16 / chroma_me=1 / trellis=1 / 8x8dct=1 / cqm=0 / deadzone=21,11 / fast_pskip=1 / chroma_qp_offset=-2 / threads=24 / sliced_threads=0 / nr=0 / decimate=1 / interlaced=0 / constrained_intra=0 / bframes=3 / b_pyramid=2 / b_adapt=1 / b_bias=0 / direct=1 / weightb=1 / open_gop=0 / weightp=2 / keyint=250 / keyint_min=25 / scenecut=40 / intra_refresh=0 / rc_lookahead=40 / rc=2pass / mbtree=1 / bitrate=4626 / ratetol=1.0 / qcomp=0.60 / qpmin=0 / qpmax=51 / qpstep=4 / cplxblur=20.0 / qblur=0.5 / ip_ratio=1.40 / aq=1:1.00
Default: Да
Forced: Нет
Аудио #1
Идентификатор: 2
Формат: AC-3
Формат/Информация: Audio Coding 3
Расширение режима: CM (complete main)
Идентификатор кодека: A_AC3
Продолжительность: 42 м.
Вид битрейта: Постоянный
Битрейт: 192 Кбит/сек
Каналы: 2 канала
Расположение каналов: Front: L R
Частота: 48,0 КГц
Битовая глубина: 16 бит
Метод сжатия: С потерями
Размер потока: 58,7 Мбайт (4%)
Язык: Russian
Default: Да
Forced: Да
Аудио #2
Идентификатор: 3
Формат: AC-3
Формат/Информация: Audio Coding 3
Расширение режима: CM (complete main)
Идентификатор кодека: A_AC3
Продолжительность: 42 м.
Вид битрейта: Постоянный
Битрейт: 384 Кбит/сек
Каналы: 2 канала
Расположение каналов: Front: L R
Частота: 48,0 КГц
Битовая глубина: 16 бит
Метод сжатия: С потерями
Размер потока: 117 Мбайт (7%)
Язык: English
Default: Нет
Forced: Нет

Внимание! Раздача ведётся путём добавления новых серий; при каждом добавлении создётся новый торрент. Чтобы начать докачку новой серии, пользователям необходимо сделать следующее:
(1) остановить скачивание,
(2) удалить старый торрент у себя из клиента (старые серии удалять не надо),
(3) скачать новый торрент и запустить его у себя в клиенте вместо старого, при этом указать клиенту путь в старую папку куда и должно происходить скачивание новых серий.
Ваш клиент при этом должен произвести хеширование (проверку) старой папки (если не производит сам - помогите ему сделать это), и будет докачивать только те серии которых у вас ещё нет. Старые серии при этом не удаляются, а продолжают раздаваться!
Eсли вы уже удалили старые серии, то предотвратить повторную закачку старых серий можно, отжав галочку в соответсвующих местах при запуске нового торрента. По возможности, желательно не удалять старые серии как можно дольше чтобы релизёр не столько продолжал раздавать старые серии, а смог сконцентрироваться на новых.


Если понравилась раздача, Жмём + Здесь И качаем
Внимание, добавлена 6 серия 03/09/2012




реклама партнёра


Вернуться к началу
 Профиль Отправить личное сообщение  
 
   Похожие торренты   Автор   Торрент   Размер 
В этой теме нет новых непрочитанных сообщений. Хранилище 13 / Ангар 13 / Warehouse 13 / 5 сезон 1-6 серии из 6 [фантастика, драма, детектив, 2014] WEB-DLRip, Mvo [LostFilm]

salma3

2 | 3

2.91 ГБ

В этой теме нет новых непрочитанных сообщений. Хранилище 13 / Warehouse 13 [S01-05] [Фантастика, драма, детектив, 2009-2014] WEB-DLRip, Mvo [КПК] [LostFilm]

salma3

36 | 28

12.42 ГБ

В этой теме нет новых непрочитанных сообщений. Хранилище 13 / Warehouse 13 [S01-05] [фантастика, драма, детектив, 2009-2014] WEB-DLRip, Mvo [LostFilm]

salma3

166 | 171

28.11 ГБ

В этой теме нет новых непрочитанных сообщений. Хранилище 13 / Warehouse 13 [S05] [фантастика, драма, детектив, 2014] WEB-DL 1080р, Mvo [LostFilm]

salma3

8 | 11

9.05 ГБ

В этой теме нет новых непрочитанных сообщений. Под куполом / Under the Dome [02x01-12 из 13] (Джек Бендер) [2014, ужасы, триллер, драма, детектив, WEB-DLRip 720p | LostFilm]

Nickolas3435

41 | 47

14.89 ГБ

В этой теме нет новых непрочитанных сообщений. Под куполом / Under the Dome [02x01-02 из 13] (Джек Бендер) [2014, ужасы, триллер, драма, детектив, WEB-DLRip 720p | LostFilm]

Nickolas3435

68 | 41

2.52 ГБ

В этой теме нет новых непрочитанных сообщений. Красавица и чудовище / Beauty and the Beast / 2 сезон 1-22 серии из 22 [триллер, драма, криминал, детектив, 2013-2014] WEB-DLRip 720p, Mvo [LostFilm]

salma3

31 | 64

31.23 ГБ


Начать новую тему Ответить на тему  [ 1 сообщение ] 




Для Мосгорсуда, Роскомнадзора и рекламодателей:: mosgorsud-torrent[собачка]yandex.ru