Торрент файл
скачать торрент магнет ссылка Добавлен: 17 сен 2012, 02:39
Размер: 14.44 ГБ
Сидеров: 62
Личеров: 19
Автор

СообщениеДобавлено: 17 сен 2012, 02:39 

Не в сети
Супермодератор
Аватара пользователя
Дата регистрации:
22 май 2010, 11:03
Возраст: 32
Спасибо: 7690 / 13
Сообщения: 49871
[b]Рухнувшие небеса / Сошедшие с небес, 2 сезон 1-10 серии / Falling Skies[/b]

Перевод: Профессиональный (многоголосый, закадровый) [Lostfilm], cубтитры: русские, английские (вшитые, отключаемые)
Слоган: «Битва только начинается.»

Формат: WEB-DL 720p, MKV, H.264/AVC, AC3
Страна: США, Канада
Режиссер: Грег Биман, Холли Дэйл, Серджо Мимика-Геззан
Жанр: фантастика, боевик, триллер
Всего серий: 10
Продолжительность: 10 x 00:42
Год выпуска: 2012
В ролях: Ноа Уайли, Мун Бладгуд, Дрю Рой, Коннор Джессуп, Максим Найт, Сейшелл Гэбриел, Питер Шинкода, Сара Картер, Мфо Коахо, Колин Каннингэм
Описание: Инопланетное вторжение стало для землян полной неожиданностью. Несколько выживших объединяются, чтобы ежедневно бороться за выживание и попытаться наладить связь с такими же как они «счастливчиками» из других городов, и дать отпор захватчикам из космоса.
Рейтинг:

Видео: 1280x720 (16:9), MPEG4/ISO/AVC, , 23.976 fps, ~3886 kbps avg, 0.176 bit/pixel
Аудио Rus: 48.0 kHz, AC3 Dolby Digital, 3/2 (L, C, R, l, r) + LFE ch, ~448.00 kbps avg
Аудио Eng: 48.0 kHz, AC3 Dolby Digital, 3/2 (L, C, R, l, r) + LFE ch, ~448.00 kbps avg
Релиз от: by CEZAR
Озвучание: Студия "LostFilm"
Работа со звуком:CEZAR
Серия 1: Из разных миров (Worlds Apart)
Серия 2: Соберемся у реки (Shall We Gather at the River)

Серия 3: Компас (Compass)
Серия 4: Молодая кровь (Young Bloods)
Серия 5: Любовь и другие акты мужества (Love and Other Acts of Courage)
Серия 6: Возвращение домой (Homecoming)
Серия 7: Приди и возьми (Molon Labe)
Серия 8: Смертельный марш (Death March)
Серия 9: Цена величия (The Price of Greatness)
Серия 10: Более тесный союз (A More Perfect Union)
Общее
Уникальный идентификатор: 246410953909081948789123232773613079586 (0xB961060283724691B386EBDD4898CC22)
Полное имя: D:\кино\сериалы\Falling.Skies.S02.720p.WEB-DL.DD5.1.H264.rus-CEZAR\Falling.Skies.S02E01.720p.WEB-DL.DD5.1.H264.rus-CEZAR.mkv
Формат: Matroska
Версия формата: Version 2
Размер файла: 1,43 Гбайт
Продолжительность: 42 м.
Общий поток: 4879 Кбит/сек
Дата кодирования: UTC 2012-06-26 05:18:07
Программа кодирования: mkvmerge v5.6.0 ('Kenya Kane') built on May 27 2012 16:44:04
Библиотека кодирования: libebml v1.2.3 + libmatroska v1.3.0
Видео
Идентификатор: 1
Формат: AVC
Формат/Информация: Advanced Video Codec
Профиль формата:
Параметр CABAC формата: Нет
Параметр ReFrames формата: 2 кадра
Идентификатор кодека: V_MPEG4/ISO/AVC
Продолжительность: 42 м.
Битрейт: 3886 Кбит/сек
Ширина: 1280 пикселей
Высота: 720 пикселей
Соотношение сторон: 16:9
Частота кадров: 23,976 кадра/сек
Цветовое пространство: YUV
Субдискретизация насыщенности: 4:2:0
Битовая глубина: 8 бит
Тип развёртки: Прогрессивная
Бит/(Пиксели*Кадры): 0.176
Размер потока: 1,14 Гбайт (80%)
Основные цвета: BT.709-5, BT.1361, IEC 61966-2-4, SMPTE RP177
Характеристики трансфера: BT.709-5, BT.1361
Коэффициенты матрицы: BT.709-5, BT.1361, IEC 61966-2-4 709, SMPTE RP177
Аудио #1
Идентификатор: 2
Формат: AC-3
Формат/Информация: Audio Coding 3
Расширение режима: CM (complete main)
Идентификатор кодека: A_AC3
Продолжительность: 42 м.
Вид битрейта: Постоянный
Битрейт: 448 Кбит/сек
Каналы: 6 каналов
Расположение каналов: Front: L C R, Side: L R, LFE
Частота: 48,0 КГц
Битовая глубина: 16 бит
Метод сжатия: С потерями
Размер потока: 135 Мбайт (9%)
Заголовок: Lostfilm
Язык: Russian
Аудио #2
Идентификатор: 3
Формат: AC-3
Формат/Информация: Audio Coding 3
Расширение режима: CM (complete main)
Идентификатор кодека: A_AC3
Продолжительность: 42 м.
Вид битрейта: Постоянный
Битрейт: 448 Кбит/сек
Каналы: 6 каналов
Расположение каналов: Front: L C R, Side: L R, LFE
Частота: 48,0 КГц
Битовая глубина: 16 бит
Метод сжатия: С потерями
Размер потока: 135 Мбайт (9%)
Язык: English
Текст #1
Идентификатор: 4
Формат: UTF-8
Идентификатор кодека: S_TEXT/UTF8
Идентификатор кодека/Информация: UTF-8 Plain Text
Язык: Russian
Текст #2
Идентификатор: 5
Формат: UTF-8
Идентификатор кодека: S_TEXT/UTF8
Идентификатор кодека/Информация: UTF-8 Plain Text
Язык: English
Меню
00:00:00.000: en:Chapter 1
00:04:00.547: en:Chapter 2
00:09:14.932: en:Chapter 3
00:15:51.723: en:Chapter 4
00:21:00.092: en:Chapter 5
00:26:58.303: en:Chapter 6
00:35:36.136: en:Chapter 7
00:41:34.320: en:Chapter 8






ВНИМАНИЕ!! Добавлена 10-я серия 06.09.12, перезакачайте торрент!!




реклама партнёра


Вернуться к началу
 Профиль Отправить личное сообщение  
 
   Похожие торренты   Автор   Торрент   Размер 
В этой теме нет новых непрочитанных сообщений. Рухнувшие Небеса / Сошедшие с небес / Falling Skies / 5 сезон 1-10 серия из 10 [фантастика, боевик, триллер, 2015] WEB-DLRip, Mvo [LostFilm]

salma3

1749 | 1394

5.2 ГБ

В этой теме нет новых непрочитанных сообщений. Рухнувшие Небеса / Falling Skies [05x01-10 из 10] (Грег Биман, Холли Дэйл, Серджо Мимика-Геззан) [фантастика, боевик, триллер, 2015] WEB-DLRip 720p, Mvo [LostFilm]

Dracon

172 | 219

12.42 ГБ

В этой теме нет новых непрочитанных сообщений. Рухнувшие Небеса / Falling Skies [05x01-10 из 10] (Грег Биман, Холли Дэйл, Серджо Мимика-Геззан) [фантастика, боевик, триллер, 2015] WEB-DLRip 1080p, Mvo [LostFilm]

Dracon

249 | 414

17.67 ГБ

В этой теме нет новых непрочитанных сообщений. Рухнувшие небеса / Falling Skies [S01-05] [фантастика, боевик, триллер, 2011-2015] WEB-DL 720p, Mvo [LostFilm, Sci-Fi]

salma3

2 | 28

77.94 ГБ

В этой теме нет новых непрочитанных сообщений. Герои: Возрождение / Heroes Reborn [01х00-12 из 13] (Грег Биман, Мэтт Шекман) [2015, Боевик, Фантастика, WEB-DL 720p | LostFilm]

Dracon

0 | 1

18.44 ГБ

В этой теме нет новых непрочитанных сообщений. Герои: Возрождение/ Heroes Reborn (Сезон 1,Серия 0-13 из 13) (Лариса Кондрацки, Грег Биман, Мэтт Шекман) [2015-2016 , Фэнтези, триллер, драма, фантастика , WEB-DLRip-AVC 1080p] [MVO] [LostFilm ]

Враг Нароода

0 | 1

26.86 ГБ

В этой теме нет новых непрочитанных сообщений. Ночные небеса / Night Skies [ужасы, фантастика, триллер, 2007] WEB-DL 720p, Dvo

salma3

1 | 0

2.85 ГБ


Начать новую тему Ответить на тему  [ 1 сообщение ] 




Для Мосгорсуда, Роскомнадзора и рекламодателей:: mosgorsud-torrent[собачка]yandex.ru