Торрент файл
скачать торрент магнет ссылка Добавлен: 17 сен 2012, 02:37
Размер: 9.96 ГБ
Сидеров: 0
Личеров: 6
Автор

СообщениеДобавлено: 17 сен 2012, 02:37 

Не в сети
Супермодератор
Аватара пользователя
Дата регистрации:
22 май 2010, 11:03
Возраст: 31
Спасибо: 7509 / 13
Сообщения: 49940
Люди Альфа / Псионики, 2 сезон 1-7 серии из 11? / Alphas
Перевод: Профессиональный (многоголосый, закадровый), cубтитры: отсутствуют
Формат: WEB-DLRip, MKV, H.264, AC3
Страна: США
Режиссер: Мэтью Хостинг
Жанр: Драма, Фантастика, Боевик, Триллер
Озвучка: LostFilm
Всего серий: 11?
Продолжительность: 7 х 00:44
Год выпуска: 2012
В ролях: Дэвид Стрэтэйрн,Уоррен Кристи,Азита Ганизада,Лора Меннелл,Райан Картрайт,Малик Йоба и др.
Описание: Эксперт министерства обороны Ли Розен возглавляет подразделение специалистов, обладающих уникальными способностями. Каждый из пяти членов его команды - человек со сверхразвитыми психофизическими возможностями. В разработку группы Альфа попадают исключительно сверхсложные задания, с которыми не могут справиться американские спецслужбы - ФБР и ЦРУ. По отдельности каждый из агентов мало чем отличается от обычных людей и в одиночку не способен на что-то экстраординарное, но вместе они могут творить чудеса.
Рейтинг на:
Видео: 1280х720, (16/9), 23,976 fps, V_MPEG4/ISO/AVC, , ~4041 kbps avg, 0.183 bit/pixel
Аудио: 48 kHz, AC3 Dolby Digital, 2/0 (L,R) ch, ~384 kbps

Общее
Уникальный идентификатор: 228506071176193859865860050771734055640 (0xABE8AB228139C72FAA29309AFEC64AD8)
Полное имя: D:\Раздачи_для_[tfile.ru]\Alphas_s02_[tfile.ru]\Alphas_s02e01_[tfile.ru].mkv
Формат: Matroska
Версия формата: Version 2
Размер файла: 1,36 Гбайт
Продолжительность: 44 м.
Общий поток: 4427 Кбит/сек
Дата кодирования: UTC 2012-07-27 19:55:22
Программа кодирования: mkvmerge v4.5.0 ('Speed of Light') сборка от Feb1 2011 02:10:32
Библиотека кодирования: libebml v1.2.0 + libmatroska v1.1.0
Видео
Идентификатор: 1
Формат: AVC
Формат/Информация: Advanced Video Codec
Профиль формата:
Параметр CABAC формата: Да
Параметр ReFrames формата: 4 кадра
Идентификатор кодека: V_MPEG4/ISO/AVC
Продолжительность: 44 м.
Битрейт: 4041 Кбит/сек
Ширина: 1280 пикселей
Высота: 720 пикселей
Соотношение сторон: 16:9
Частота кадров: 23,976 кадра/сек
Цветовое пространство: YUV
Субдискретизация насыщенности: 4:2:0
Битовая глубина: 8 бит
Тип развёртки: Прогрессивная
Бит/(Пиксели*Кадры): 0.183
Размер потока: 1,22 Гбайт (89%)
Библиотека кодирования: x264 core 112 r1834 a51816a
Настройки программы: cabac=1 / ref=1 / deblock=1:0:0 / analyse=0x3:0x113 / me=hex / subme=7 / psy=1 / psy_rd=1.00:0.00 / mixed_ref=0 / me_range=16 / chroma_me=1 / trellis=1 / 8x8dct=1 / cqm=0 / deadzone=21,11 / fast_pskip=1 / chroma_qp_offset=-2 / threads=6 / sliced_threads=0 / nr=0 / decimate=1 / interlaced=0 / constrained_intra=0 / bframes=3 / b_pyramid=2 / b_adapt=1 / b_bias=0 / direct=1 / weightb=1 / open_gop=0 / weightp=2 / keyint=250 / keyint_min=25 / scenecut=40 / intra_refresh=0 / rc_lookahead=40 / rc=2pass / mbtree=1 / bitrate=4041 / ratetol=1.0 / qcomp=0.60 / qpmin=0 / qpmax=51 / qpstep=4 / cplxblur=20.0 / qblur=0.5 / ip_ratio=1.40 / aq=1:1.00
Default: Да
Forced: Нет
Аудио
Идентификатор: 2
Формат: AC-3
Формат/Информация: Audio Coding 3
Расширение режима: CM (complete main)
Идентификатор кодека: A_AC3
Продолжительность: 44 м.
Вид битрейта: Постоянный
Битрейт: 384 Кбит/сек
Каналы: 2 канала
Расположение каналов: Front: L R
Частота: 48,0 КГц
Битовая глубина: 16 бит
Метод сжатия: С потерями
Размер потока: 121 Мбайт (9%)
Язык: Russian
Default: Да
Forced: Да







Внимание! Раздача ведётся путём добавления новых серий; при каждом добавлении создётся новый торрент. Чтобы начать докачку новой серии, пользователям необходимо сделать следующее:
(1) остановить скачивание,
(2) удалить старый торрент у себя из клиента (старые серии удалять не надо),
(3) скачать новый торрент и запустить его у себя в клиенте вместо старого, при этом указать клиенту путь в старую папку куда и должно происходить скачивание новых серий.
Ваш клиент при этом должен произвести хеширование (проверку) старой папки (если не производит сам - помогите ему сделать это), и будет докачивать только те серии которых у вас ещё нет. Старые серии при этом не удаляются, а продолжают раздаваться!
Eсли вы уже удалили старые серии, то предотвратить повторную закачку старых серий можно, отжав галочку в соответсвующих местах при запуске нового торрента. По возможности, желательно не удалять старые серии как можно дольше чтобы релизёр не столько продолжал раздавать старые серии, а смог сконцентрироваться на новых.


Если понравилась раздача, Жмём + Здесь И качаем
Внимание, добавлена 7 серия 14/09/2012




реклама партнёра


Вернуться к началу
 Профиль Отправить личное сообщение  
 
   Похожие торренты   Автор   Торрент   Размер 
В этой теме нет новых непрочитанных сообщений. Вызов / Непокорная Земля / Defiance [3 сезон 1-13 серии из 13] (Майкл Нанкин) [фантастика, боевик, драма, 2015] WEB-DLRip 720p, Mvo [LostFilm]

Dracon

85 | 116

18.28 ГБ

В этой теме нет новых непрочитанных сообщений. Агенты Щ.И.Т / Agents of S.H.I.E.L.D / 2 сезон 1-22 серии из 22 [фантастика, боевик, драма, 2014] WEB-DLRip, Mvo [LostFilm]

salma3

29 | 12

10.74 ГБ

В этой теме нет новых непрочитанных сообщений. Салем / Salem / 3 сезон 1-04 серии из 13 [фантастика, триллер, драма, 2016] WEB-DLRip, Mvo [LostFilm]

salma3

91 | 203

1.97 ГБ

В этой теме нет новых непрочитанных сообщений. Нация Z / Z Nation / 3 сезон 1-13 серии из 14 [Боевик, Драма, Ужасы, Фантастика, 2016] WEB-DLRip, Mvo [LostFilm]

salma3

94 | 220

6.35 ГБ

В этой теме нет новых непрочитанных сообщений. Сошедшие с небес / Рухнувшие небеса / Falling Skies / 4 сезон 1-12 серии из 12 [Фантастика, боевик, триллер, 2014] WEB-DLRip, Mvo [LostFilm]

salma3

450 | 98

5.44 ГБ

В этой теме нет новых непрочитанных сообщений. Вызов / Непокорная Земля / Defiance / 3 сезон 1-13 серии из 13 [фантастика, боевик, драма, 2015] WEB-DLRip, Mvo [LostFilm]

salma3

14 | 5

10.64 ГБ

В этой теме нет новых непрочитанных сообщений. Ван Хельсинг / Van Helsing / 1 сезон 1-12 серии из 13 [Фэнтези, боевик, триллер, драма, 2016] WEB-DLRip, Mvo [LostFilm]

salma3

105 | 176

6.73 ГБ


Начать новую тему Ответить на тему  [ 1 сообщение ] 




Для Мосгорсуда, Роскомнадзора и рекламодателей:: mosgorsud-torrent[собачка]yandex.ru