Торрент файл
скачать торрент магнет ссылка Добавлен: 13 сен 2012, 17:08
Размер: 1.45 ГБ
Сидеров: 178
Личеров: 12
Статус: (Dracon)
Автор

СообщениеДобавлено: 13 сен 2012, 17:08 

Не в сети
Зам. Админа
Аватара пользователя
Дата регистрации:
02 дек 2010, 12:39
Спасибо: 12461 / 214
Сообщения: 27968

Год выхода: 2012
Жанр: драма
Режиссер: Алена Званцова
В ролях: Константин Хабенский, Михаил Пореченков, Ингеборга Дапкунайте, Анна Михалкова, Евгения Добровольская, Никита Зверев, Дмитрий Марьянов, Марина Дуксова, Юрий Ермаков, Юрий Ицков

О фильме:
Адвокаты Андрей и Вениамин — друзья, которых объединяет многое, но работа то и дело ставит их на разные стороны баррикад. Особенность их положения в том, что судебные процессы, в которых они участвуют, происходят не в земной жизни, а в загробной. Они — участники Небесного Суда, решающего, куда направить душу человека после смерти, в Рай или в Ад. В одно из дел неожиданно вмешиваются личные интересы Андрея: на скамью подсудимых попадает человек, сделавший предложение его вдове.

Страна: Россия
Продолжительность: ~ 45 минут серия
Перевод: Не требуется

Кодек: XviD / MP3
Качество: DVDRip
Видео: XviD, 656x368 (1.78:1), 25 fps, 939 Kbps, 0.156 Bits/(Pixel*Frame)
Звук: MP3, 48 kHz, 2 ch, 128 kbps

General
Complete name: /media/Nebesnyy.sud_DVDRip_[Rutor.org]/Nebesnyy.sud_DVDRip.e01_[Rutor.org].avi
Format: AVI
Format/Info: Audio Video Interleave
File size: 372 MiB
Duration: 48mn 25s
Overall bit rate: 1 074 Kbps
Writing application: VirtualDubMod 1.5.4.1 (build 2178/release)
Writing library: VirtualDubMod build 2178/release

Video
ID: 0
Format: MPEG-4 Visual
Format profile: Advanced Simple@L5
Format settings, BVOP: 1
Format settings, QPel: No
Format settings, GMC: No warppoints
Format settings, Matrix: Custom
Codec ID: XVID
Codec ID/Hint: XviD
Duration: 48mn 25s
Bit rate: 939 Kbps
Width: 656 pixels
Height: 368 pixels
Display aspect ratio: 16:9
Frame rate: 25.000 fps
Color space: YUV
Chroma subsampling: 4:2:0
Bit depth: 8 bits
Scan type: Progressive
Compression mode: Lossy
Bits/(Pixel*Frame): 0.156
Stream size: 325 MiB (87%)
Writing library: XviD 65

Audio
ID: 1
Format: MPEG Audio
Format version: Version 1
Format profile: Layer 3
Mode: Joint stereo
Codec ID: 55
Codec ID/Hint: MP3
Duration: 48mn 25s
Bit rate mode: Constant
Bit rate: 128 Kbps
Channel(s): 2 channels
Sampling rate: 48.0 KHz
Compression mode: Lossy
Delay relative to video: 192ms
Stream size: 44.3 MiB (12%)
Alignment: Aligned on interleaves
Interleave, duration: 80 ms (2.00 video frames)
Interleave, preload duration: 504 ms
Writing library: LAME3.99r
Encoding settings: -m j -V 4 -q 2 -lowpass 17 -b 128
Language: Russian




реклама партнёра


Вернуться к началу
 Профиль  
 
   Похожие торренты   Автор   Торрент   Размер 
В этой теме нет новых непрочитанных сообщений. Небесный суд [Драма, фэнтези, 2012] WEB-DLRip

Dracon

805 | 16

1.45 ГБ

В этой теме нет новых непрочитанных сообщений. Небесный суд. Продолжение [S02] [Драма, 2014] SATRip

Dracon

1756 | 90

2.65 ГБ

В этой теме нет новых непрочитанных сообщений. Небесный огонь / Heaven's Fire [Боевик, 1999] DVDRip, Avo

salma3

3 | 2

741.79 МБ

В этой теме нет новых непрочитанных сообщений. Небесный легион / Cheon gun [фантастика, боевик, 2005] DVDRip, Mvo

salma3

73 | 15

911.48 МБ

В этой теме нет новых непрочитанных сообщений. Небесный щит [Документальный, познавательный, вооружение, 2014] HDTVRip

Dracon

90 | 9

520.74 МБ

В этой теме нет новых непрочитанных сообщений. Небесный меч / Heavenly Sword (Ган Хо Джанг) [мультфильм, фэнтези, боевик, приключения, 2014] HDRip, avo

Dracon

12 | 2

1.36 ГБ

В этой теме нет новых непрочитанных сообщений. Небесный меч / Heavenly Sword (Ган Хо Джанг) [мультфильм, фэнтези, боевик, приключения, 2014] HDRip, dvo

Dracon

1 | 0

1.37 ГБ


Начать новую тему Ответить на тему  [ 1 сообщение ] 




Для Мосгорсуда, Роскомнадзора и рекламодателей:: mosgorsud-torrent[собачка]yandex.ru