Торрент файл
скачать торрент магнет ссылка Добавлен: 01 июн 2012, 20:08
Размер: 19.57 ГБ
Сидеров: 17
Личеров: 6
Статус: (Dracon)
Автор

СообщениеДобавлено: 01 июн 2012, 20:08 

Не в сети
Зам. Админа
Аватара пользователя
Дата регистрации:
02 дек 2010, 12:39
Спасибо: 12612 / 214
Сообщения: 28049

Год выхода: 2012
Жанр: Боевик, криминал
Режиссер: Михаил Макаренко, Андрей Иванов
В ролях: Игорь Ботвин, Сергей Гамов, Роман Агеев, Игорь Ламба, Светлана Цвиченко, Кирилл Капица, Андрей Аверков, Юрий Уткин, Ольга Белявская, Евгений Сиротин, Александр Глинский, Рафаил Эйвазов, Денис Кириллов, Владимир Космидайло, Анатолий Ильченко, Александр Мосолов, Геннадий Макоев, Сергей Шкарбан, Сергей Федоров (VI), Стэнли Красовицки, Наталья Голованова, Евгений Катаев, Диана Дезмари, Елена Купрашевич, Антон Успенский

О фильме:
Феликс Малинин живет в небольшом городке. Среди друзей и знакомых, он слывет неплохим парнем, замкнутым чудаком, постоянно пропадающим в командировках. У Феликса есть небольшое пристрастие – он очень любит готовить, а также У НЕГО ЕСТЬ секрет, о котором знают лишь несколько человек. На самом деле он – сотрудник оперативно-розыскного бюро МВД. Его оперативный псевдоним - «Кулинар». Его работа – оперативное внедрение и сбор информации обо всём, что может представлять интерес для правоохранительных органов. Способный мгновенно перевоплощаться и любыми способами получить нужную информацию, к каждому делу Феликс подходит с особым вкусом – будто готовит очередное блюдо, а каждой операции дает кулинарное название..
Страна: Россия
Студия: StarMedia
Продолжительность: ~48 минут серия

Кодек: MPEG2
Качество: DVB
Видео: MPEG2 Video, 704x576 (4:3), 25.00fps, ~2600 Kbps, 0.262 bit/pixel
Звук: MPEG Audio, 48000Hz, 2ch, 192 Кбит/сек
Субтитры: Украинские (вшитые)

Семпл

Общее
Полное имя 10 серия__DVB by volk & UAOnline__RG Сериалы.mpg
Формат : MPEG-PS
Размер файла : 1004 Мбайт
Продолжительность : 48 м.
Режим общего битрейта : Переменный
Общий поток : 2903 Кбит/сек
Библиотека кодирования : (c) 1998-2010 Womble Multimedia, Inc. / MPEG Video Wizard DVD 5.0.0.114 (01/2010) / Nov 13 2010
Видео
Идентификатор : 224 (0xE0)
Формат : MPEG Video
Версия формата : Version 2
Профиль формата : Main@Main
Параметр BVOP формата : Да
Параметр матрицы формата : Выборочная
Параметр GOP формата : M=1, N=15
Продолжительность : 48 м.
Вид битрейта : Переменный
Битрейт : 2653 Кбит/сек
Максимальный битрейт : 15,0 Мбит/сек
Ширина : 704 пикселя
Высота : 576 пикселей
Соотношение сторон : 4:3
Частота кадров : 25,000 кадров/сек
Стандарт вещания : PAL
Цветовое пространство : YUV
Субдискретизация насыщенности : 4:2:0
Битовая глубина : 8 бит
Тип развёртки : Чересстрочная
Порядок развёртки : Верхнее поле первое
Метод сжатия : С потерями
Бит/(Пиксели*Кадры) : 0.262
Размер потока : 918 Мбайт (91%)
Библиотека кодирования : (c) 1998-2010 Womble Multimedia, Inc. / MPEG Video Wizard DVD 5.0.0.114 (01/2010) / Nov 13 2010
Аудио
Идентификатор : 192 (0xC0)
Формат : MPEG Audio
Версия формата : Version 1
Профиль формата : Layer 2
Продолжительность : 48 м.
Вид битрейта : Постоянный
Битрейт : 192 Кбит/сек
Каналы : 2 канала
Частота : 48,0 КГц
Метод сжатия : С потерями
Размер потока : 66,4 Мбайт (7%)


Релиз от:




реклама партнёра


Вернуться к началу
 Профиль  
 
   Похожие торренты   Автор   Торрент   Размер 
В этой теме нет новых непрочитанных сообщений. Под прикрытием / Pod prikritie [s03] [боевик, драма, криминал, 2012] HDRip, Mvo

salma3

23 | 17

8.2 ГБ

В этой теме нет новых непрочитанных сообщений. Защитник / Safe [боевик, триллер, криминал, 2012] BDRip, Avo

salma3

5 | 2

1.46 ГБ

В этой теме нет новых непрочитанных сообщений. Защитник / Safe [боевик, триллер, криминал, 2012] BDRip-AVC, Dub

salma3

40 | 2

2.18 ГБ

В этой теме нет новых непрочитанных сообщений. Должник / The Liability [триллер, криминал, боевик, 2012] BDRemux 1080p, Mvo+Dvo

salma3

27 | 10

18.01 ГБ

В этой теме нет новых непрочитанных сообщений. Автострада / Motorway / Che sau [Боевик, драма, криминал, 2012] BDRip 720р, Avo+Sub

salma3

202 | 35

5.67 ГБ

В этой теме нет новых непрочитанных сообщений. Наблюдатель / Le guetteur [боевик, триллер, криминал, 2012] BDRip 1080p, Mvo+Svo+Sub

salma3

64 | 21

6.71 ГБ

В этой теме нет новых непрочитанных сообщений. Заложница: Дилогия / Taken: Dilogy [боевик, триллер, криминал , 2008-2012] BDRip, Dub

salma3

123 | 16

2.91 ГБ


Начать новую тему Ответить на тему  [ 1 сообщение ] 




Для Мосгорсуда, Роскомнадзора и рекламодателей:: mosgorsud-torrent[собачка]yandex.ru