Торрент файл
скачать торрент магнет ссылка Добавлен: 08 май 2012, 14:37
Размер: 18.9 ГБ
Сидеров: 81
Личеров: 42
Автор

СообщениеДобавлено: 08 май 2012, 14:37 

Не в сети
Релизёр
Дата регистрации:
02 апр 2012, 20:33
Спасибо: 345 / 0
Сообщения: 1461
Остров ненужных людей (1- 24 серии из 24)
Перевод: Не требуется Субтитры:отсутствуют
Формат: DVDRip, MKV, AVC, MP3
Страна: Россия, Украина
Режиссер: Эдуард Парри
Жанр: Драма, приключения
Всего серий: 24
Продолжительность:24 х 00:43
Год выпуска: 2012
В ролях: Дмитрий Ульянов, Эльвира Болгова, Нелли Пшенная, Александр Панкратов-Черный, Юлия Силаева, Александр Робак, Павел Трубинер, Константин Милованов, Галина Звягинцева, Екатерина Стулова
Описание: Преуспевающий бизнесмен Андрей Каморин несчастлив в семейной жизни. Он бы давно бросил жену Лизу, но на нее записано все имущество. После очередного скандала Андрей предлагает ей поехать с ним в круиз под предлогом, что совместное путешествие поможет им наладить отношения. Группа туристов из тринадцати человек, включая Лизу и Андрея, прилетает в азиатскую страну, но вместо экзотического путешествия их ожидает суровое испытание. Потерпев кораблекрушение, они спасаются на необитаемом острове. Несчастным предстоит выживать. Каждый использует свои навыки, чтобы занять нишу в новом социуме. Лиза, начинает собственное расследование обстоятельств, при которых их пестрая компания оказалась на острове и заставляет всех вспомнить своё прошлое и обнаруживает странную закономерность: все они когда-то были связаны между собой...
Рейтинг :
Видео: 720x428 (16:9), 25 fps, MPEG-4 AVC ~2329 kbps avg, 0.302 bit/pixel
Аудио: 48 kHz, MPEG Layer 3, 2 ch, ~160 kbps avg
Общее
Уникальный идентификатор: 168348648403719580577546155723716462494 (0x7EA6C532C2870C1E037BA147C20E879E)
Полное имя: D:\КАДИРОВКА\ostrov_nenuzhnyh_01_[tfile.ru].mkv
Формат: Matroska
Версия формата: Version 2
Размер файла: 788 Мбайт
Продолжительность: 43 м.
Общий поток: 2540 Кбит/сек
Программа кодирования: Lavf51.12.1
Библиотека кодирования: Lavf51.12.1
Видео
Идентификатор: 1
Формат: AVC
Формат/Информация: Advanced Video Codec
Профиль формата:
Параметр CABAC формата: Да
Параметр ReFrames формата: 1 кадр
Параметр GOP формата: M=1, N=12
Идентификатор кодека: V_MPEG4/ISO/AVC
Продолжительность: 43 м.
Битрейт: 2329 Кбит/сек
Ширина: 720 пикселей
Высота: 428 пикселей
Соотношение сторон: 16:9
Соотношение сторон в оригинале: 16:9
Режим частоты кадров: Переменный
Частота кадров: 25,000 кадров/сек
Цветовое пространство: YUV
Субдискретизация насыщенности: 4:2:0
Битовая глубина: 8 бит
Тип развёртки: Прогрессивная
Бит/(Пиксели*Кадры): 0.302
Размер потока: 723 Мбайт (92%)
Default: Да
Forced: Нет
Аудио
Идентификатор: 2
Формат: MPEG Audio
Версия формата: Version 1
Профиль формата: Layer 3
Режим: Joint stereo
Расширение режима: MS Stereo
Идентификатор кодека: A_MPEG/L3
Идентификатор кодека/Подсказка: MP3
Продолжительность: 43 м.
Вид битрейта: Постоянный
Битрейт: 160 Кбит/сек
Каналы: 2 канала
Частота: 48,0 КГц
Метод сжатия: С потерями
Размер потока: 49,7 Мбайт (6%)
Default: Да
Forced: Нет













реклама партнёра


Вернуться к началу
 Профиль Отправить личное сообщение  
 
   Похожие торренты   Автор   Торрент   Размер 
В этой теме нет новых непрочитанных сообщений. Остров надежды / Stranded [драма, приключения, 2002] DVDRip, Mvo

salma3

57 | 6

1.37 ГБ

В этой теме нет новых непрочитанных сообщений. Ночь в лесу / A Night in the Woods (Ричард Парри) [2011, ужасы, DVDRip] avo

Nickolas3435

35 | 6

733.49 МБ

В этой теме нет новых непрочитанных сообщений. Нападение людей-грибов / Matango [ужасы, фантастика, триллер, драма, детектив, 1963] DVDRip, Avo

salma3

19 | 4

1.17 ГБ

В этой теме нет новых непрочитанных сообщений. Нападение на Остров Дьявола / Assault on Devil's Island [боевик, триллер, приключения, 1997] DVDRip, Mvo

salma3

20 | 5

1.37 ГБ

В этой теме нет новых непрочитанных сообщений. Флэш / The Flash [01x01-23 из 23] (Дэвид Наттер) [2014, фантастика, боевик, Приключения, драма, сериалы, WEB-DL 720p | BaibaKo]

Dracon

7 | 12

33.13 ГБ

В этой теме нет новых непрочитанных сообщений. Флэш / The Flash [01x01-22 из 23] (Дэвид Наттер) [2014, фантастика, боевик, Приключения, драма, сериалы, WEB-DL 720p | BaibaKo]

Dracon

В этой теме нет новых непрочитанных сообщений. Манекенщица [1-4 серии из 4] [Сериалы, Мелодрама, 2014] SATRip

Dracon

2 | 28

2.53 ГБ


Начать новую тему Ответить на тему  [ 1 сообщение ] 




Для Мосгорсуда, Роскомнадзора и рекламодателей:: mosgorsud-torrent[собачка]yandex.ru