Торрент файл
скачать торрент магнет ссылка Добавлен: 08 апр 2012, 11:12
Размер: 6.06 ГБ
Сидеров: 5
Личеров: 5
Статус: (drink)
Автор

СообщениеДобавлено: 08 апр 2012, 11:12 

Не в сети
Аватара пользователя
Дата регистрации:
14 дек 2010, 17:51
Возраст: 23
Спасибо: 0 / 0
Сообщения: 3
Откуда: г.Похвистнево
- Бесстыжие / Shameless (US)
2 сезон, 1-11 серии



--Год выпуска: 2012
Страна: США
Жанр: драма, комедия
Продолжительность: 11 х ~55 мин
Перевод: профессиональный многоголосый закадровый (AlexFilm)
Русские субтитры: нет

-Создатель сериала: Пол Эбботт

Режиссеры: Марк Майлод, Джон Уэллс, Стивен Хопкинс, Тодд Холлэнд, Мими Ледер, Джон Дал

В ролях: Уильям Х. Мэйси, Эмми Россам, Итэн Каткоски, Джастин Чэтвин, Блейк Александр Джонсон, Бреннан Кэйн Джонсон, Кельвин Гилмор, Камерон Монахэн, Лаура Уиггинс, Джоэль Мюррэй, Пей Вахдат, Джоан Кьюсак-

Описание: Shameless, основанный на одноименном британском сериале, расскажет о семействе Галлагеров из Чикаго. Мать уже давно бросила семью, а отец-алкоголик обычно лежит в отключке, поэтому 18-летней дочери приходится взять на себя обязанности родителя и воспитывать пятерых братьев и сестер.

-Релиз:
Перевод: Олег Папулов (Jeketeur)
Роли озвучивали:
    Евгения Тихонова
    Анастасия Флигина
    Константин Погодаев
    Александр Дасевич
  • Михаил Суслов
-

-Внимание! В сериале присутствуют сцены с обнаженной натурой и ненормативная лексика!

-Качество: HDTVRip
Формат: AVI
Видео кодек: XviD
Аудио кодек: MP3
Видео: 624x352 (1.77:1), 23.976 fps, XviD build 50 ~1211 kbps avg, 0.23 bit/pixel
Аудио Rus: 48 kHz, MPEG Layer 3, 2 ch, ~128.00 kbps avg
Аудио Eng: 48 kHz, MPEG Layer 3, 2 ch, ~128.00 kbps avg

-
    Лето (Summertime)
    Летняя любовь (Summer Loving)
    Каждый день я буду ставить за тебя свечку (I'll Light a Candle for You Every Day)
    Прекрасный трындец (A Beautiful Mess)
    День отца (Father's Day)
    А можно мне маму? (Can I Have a Mother)
    Бутылочка ароматического масла (A Bottle of Jean Nate)
    Отцы и дети (Parenthood)
    Ураган Моника (Hurricane Monica)
    Благое дело (A Great Cause)
    Как и замышляли пилигримы (Just Like the Pilgrims Intended)
  • (Fiona Interrupted)




-
Format : AVI
Format/Info : Audio Video Interleave
File size : 581 MiB
Duration : 54mn 48s
Overall bit rate : 1 481 Kbps
Writing application : VirtualDubMod 1.5.10.2 (build 2542/release)
Writing library : VirtualDubMod build 2542/release
Video
ID : 0
Format : MPEG-4 Visual
Format profile : Advanced Simple@L5
Format settings, BVOP : 1
Format settings, QPel : No
Format settings, GMC : No warppoints
Format settings, Matrix : Default (MPEG)
Codec ID : XVID
Codec ID/Hint : XviD
Duration : 54mn 48s
Bit rate : 1 211 Kbps
Width : 624 pixels
Height : 352 pixels
Display aspect ratio : 16:9
Frame rate : 23.976 fps
Color space : YUV
Chroma subsampling : 4:2:0
Bit depth : 8 bits
Scan type : Progressive
Compression mode : Lossy
Bits/(Pixel*Frame) : 0.230
Stream size : 475 MiB (82%)
Writing library : XviD 1.2.1 (UTC 2008-12-04)
Audio #1
ID : 1
Format : MPEG Audio
Format version : Version 1
Format profile : Layer 3
Mode : Joint stereo
Mode extension : MS Stereo
Codec ID : 55
Codec ID/Hint : MP3
Duration : 54mn 48s
Bit rate mode : Constant
Bit rate : 128 Kbps
Channel(s) : 2 channels
Sampling rate : 48.0 KHz
Compression mode : Lossy
Stream size : 50.2 MiB (9%)
Alignment : Aligned on interleaves
Interleave, duration : 42 ms (1.00 video frame)
Interleave, preload duration : 504 ms
Audio #2
ID : 2
Format : MPEG Audio
Format version : Version 1
Format profile : Layer 3
Mode : Joint stereo
Mode extension : MS Stereo
Codec ID : 55
Codec ID/Hint : MP3
Duration : 54mn 48s
Bit rate mode : Constant
Bit rate : 128 Kbps
Channel(s) : 2 channels
Sampling rate : 48.0 KHz
Compression mode : Lossy
Stream size : 50.2 MiB (9%)
Alignment : Aligned on interleaves
Interleave, duration : 42 ms (1.00 video frame)
Interleave, preload duration : 504 ms

Внимание! Раздача ведётся путём добавления новых серий; при каждом добавлении создётся новый торрент. Чтобы начать докачку новой серии, пользователям необходимо сделать следующее:
(1) остановить скачивание,
(2) удалить старый торрент у себя из клиента (старые серии удалять не надо),
(3) скачать новый торрент и запустить его у себя в клиенте вместо старого, при этом указать клиенту путь в старую папку куда и должно происходить скачивание новых серий.
Ваш клиент при этом должен произвести хеширование (проверку) старой папки (если не производит сам - помогите ему сделать это), и будет докачивать только те серии которых у вас ещё нет. Старые серии при этом не удаляются, а продолжают раздаваться!
Eсли вы уже удалили старые серии, то предотвратить повторную закачку старых серий можно, отжав галочку в соответсвующих местах при запуске нового торрента. По возможности, желательно не удалять старые серии как можно дольше чтобы релизёр не столько продолжал раздавать старые серии, а смог сконцентрироваться на новых.



Последний раз редактировалось nIcRon 08 апр 2012, 14:56, всего редактировалось 4 раз(а).


реклама партнёра


Вернуться к началу
 Профиль Отправить личное сообщение  
 
   Похожие торренты   Автор   Торрент   Размер 
В этой теме нет новых непрочитанных сообщений. Бесстыжие / Бесстыдники / Shameless (US) [1-5 сезоны 1-60 серии из 60] (Марк Майлод, Джон Уэллс, Мими Ледер) [2011-2015, драма, комедия, HDTVRip | AlexFilm]

Nickolas3435

0 | 31

35.79 ГБ

В этой теме нет новых непрочитанных сообщений. Бесстыжие / Бесстыдники / Shameless (US) [05x01-09 из 12] (Марк Майлод, Джон Уэллс, Мими Ледер) [2015, драма, комедия, HDTVRip | AlexFilm]

Nickolas3435

64 | 68

5.61 ГБ

В этой теме нет новых непрочитанных сообщений. Бесстыжие / Бесстыдники / Shameless (US) [05x01-04 из 12] (Марк Майлод, Джон Уэллс, Мими Ледер) [2015, драма, комедия, HDTVRip | AlexFilm]

Nickolas3435

97 | 137

2.49 ГБ

В этой теме нет новых непрочитанных сообщений. Бесстыжие / Бесстыдники / Shameless (US) [05x01-09 из 12] (Марк Майлод, Джон Уэллс, Мими Ледер) [2015, драма, комедия, HDTVRip 720p | AlexFilm]

Nickolas3435

10 | 26

12.17 ГБ

В этой теме нет новых непрочитанных сообщений. Бесстыжие / Бесстыдники / Shameless (US) [05x01-12 из 12] (Марк Майлод, Джон Уэллс, Мими Ледер) [2015, драма, комедия, HDTVRip 720p | AlexFilm]

Nickolas3435

124 | 204

16.08 ГБ

В этой теме нет новых непрочитанных сообщений. Бесстыжие / Бесстыдники / Shameless (US) [05x01-06 из 12] (Марк Майлод, Джон Уэллс, Мими Ледер, Санаа Хамри, Питер Сигал)[2015, драма, комедия, HDTVRip | AlexFilm]

Nickolas3435

249 | 287

3.74 ГБ

В этой теме нет новых непрочитанных сообщений. Бесстыжие / Бесстыдники / Shameless (US) [05x01-08 из 12] (Марк Майлод, Джон Уэллс, Мими Ледер, Санаа Хамри, Питер Сигал) [2015, драма, комедия, HDTVRip | AlexFilm]

Nickolas3435

47 | 49

4.93 ГБ


СообщениеДобавлено: 08 апр 2012, 13:50 

Не в сети
Супермодератор
Аватара пользователя
Дата регистрации:
11 апр 2010, 18:10
Спасибо: 5799 / 7
Сообщения: 56779
Криво сделано, надо бы поправить:
nIcRon писал(а):
2 сезон, 1-11 серии Enter Год выпуска: 2012

nIcRon писал(а):
Русские субтитры: нет Enter Создатель сериала: Пол Эбботт

nIcRon писал(а):
Джоан Кьюсак Enter Описание:

nIcRon писал(а):
...пятерых братьев и сестер. Enter Релиз:...

nIcRon писал(а):
Внимание! В сериале присутствуют сцены с обнаженной натурой и ненормативная лексика!Enter Качество: HDTVRip


+ "Раздачи сериала" убираем ссылку на рутрекер


Вернуться к началу
 Профиль Отправить личное сообщение  
 
Начать новую тему Ответить на тему  [ Сообщений: 2 ] 




Для Мосгорсуда, Роскомнадзора и рекламодателей:: mosgorsud-torrent[собачка]yandex.ru