Торрент файл
скачать торрент магнет ссылка Добавлен: 20 мар 2012, 00:52
Размер: 17.21 ГБ
Сидеров: 19
Личеров: 8
Автор

СообщениеДобавлено: 20 мар 2012, 00:52 

Не в сети
Администратор
Дата регистрации:
08 апр 2010, 18:00
Спасибо: 1075 / 220
Сообщения: 17131
Братаны-2
Год выпуска: 2010
Производство: ООО «Телекомпания «Мостелефильм
Жанр: боевик
Продолжительность: 32x~00:45:49
Субтитры: нет
Режиссёр: Сергей Лялин, Сергей Артимович

В ролях: Ева Авеева, Александр Андриенко, Александр Баринов, Сергей Векслер, Даниил Воробьев, Елена Гольянова, Борис Клюев, Сергей Коваленко, Виктор Конухин, Алексей Кравченко, Равшана Куркова, Антон Никушин, Сергей Селин, Денис Сухомлинов, Виктория Фишер, Антон Хабаров, Феликс Шультесс, Александр Лучинин

Описание: В день ВДВ братаны узнают, что их друг Костян погиб, разбился на мотоцикле. Братаны стоят на могиле друга, к ним подъезжает мотоциклист. В шлеме он напоминает погибшего друга. Это Алекс, младший брат Костяна. У выхода с кладбища братаны с Алексом вступаются за детей-попрошаек. Оказывается Ваня и Таня здесь работают на бандитов, которые заставляют их просить милостыню, и отбирают заработанные деньги. Неожиданная череда событий заставляет братанов ввязаться в запутанную бандитскую сеть, найти и обезвредить их главарей и освободить детей.

Сэмпл: http://multi-up.com/372645
Релиз от:
Качество: SATRip
Формат: AVI
Видео кодек: XviD
Аудио кодек: MP3
Видео: 704x400 (1.76:1) (16:9), 25 fps, XviD MPEG-4 codec, BitRate: ~1568Kbps, 0.223 bit/pixel
Аудио: 48000 kHz, MPEG 1 or 2 Audio Layer 3 (MP3), 128kbps
MI
Allgemein
Полное имя : C:\Users\Alex\Videos\Bratany.2.(32.serii.iz.32).2010.XviD.SATRip_SVAT\Bratany.2.(01.seriya.iz.32).2010.XviD.SATRip_SVAT.avi
Формат : AVI
Формат/Информация : Audio Video Interleave
Размер файла : 552 MiB
Продолжительность : 45min
Общий поток : 1 706 Kbps
Программа кодирования : VirtualDubMod 1.5.10.2 (build 2540/release)
Библиотека кодирования : VirtualDubMod build 2540/release
Video
Идентификатор : 0
Формат : MPEG-4 Visual
Профайл формата : Advanced Simple@L5
Параметры BVOP формата : Ja
Параметры QPel формата : Nein
Параметры GMC формата : Keine warppoints
Параметры матрицы формата : Default (MPEG)
Идентификатор кодека : XVID
Идентификатор кодека/Подсказка : XviD
Продолжительность : 45min
Битрейт : 1 568 Kbps
Ширина : 704 Pixel
Высота : 400 Pixel
Соотношение кадра : 16:9
Частота кадров : 25,000 FPS
ColorSpace : YUV
ChromaSubsampling : 4:2:0
BitDepth/String : 8 bits
Тип развёртки : progressiv
Бит/(Пиксели*Кадры) : 0.223
Размер потока : 508 MiB (92%)
Библиотека кодирования : XviD 57
Audio
Идентификатор : 1
Формат : MPEG Audio
Версия формата : Version 1
Профайл формата : Layer 3
Идентификатор кодека : 55
Идентификатор кодека/Подсказка : MP3
Продолжительность : 45min
Вид битрейта : konstant
Битрейт : 128 Kbps
Канал(ы) : 2 Kanäle
Частота : 48,0 KHz
Размер потока : 41,4 MiB (8%)
Выравнивание : Ausgerichtet an Interleaves
Продолжительность промежутка : 40 ms (1,00 Video-Frame)
Время предзагрузки промежутка : 504 ms
Библиотека кодирования : LAME3.98r
Настройки программы : -m s -V 4 -q 2 -lowpass 17 -b 128
Скриншоты
Внимание ! Раздача ведётся путём добавления новых серий
Внимание! Раздача ведётся путём добавления новых серий; при каждом добавлении создётся новый торрент. Чтобы начать докачку новой серии, пользователям необходимо сделать следующее:
(1) остановить скачивание,
(2) удалить старый торрент у себя из клиента (старые серии удалять не надо),
(3) скачать новый торрент и запустить его у себя в клиенте вместо старого, при этом указать клиенту путь в старую папку куда и должно происходить скачивание новых серий.
Ваш клиент при этом должен произвести хеширование (проверку) старой папки (если не производит сам - помогите ему сделать это), и будет докачивать только те серии которых у вас ещё нет. Старые серии при этом не удаляются, а продолжают раздаваться!
Eсли вы уже удалили старые серии, то предотвратить повторную закачку старых серий можно, отжав галочку в соответсвующих местах при запуске нового торрента. По возможности, желательно не удалять старые серии как можно дольше чтобы релизёр не столько продолжал раздавать старые серии, а смог сконцентрироваться на новых.
[spoiler="Сравнение"]




реклама партнёра


Вернуться к началу
 Профиль Отправить личное сообщение  
 
   Похожие торренты   Автор   Торрент   Размер 
В этой теме нет новых непрочитанных сообщений. Полоса отчуждения [01-08 из 08] (Сергей Лялин) [2014, Мелодрама, HDTVRip 720]

Nickolas3435

47 | 23

12.43 ГБ

В этой теме нет новых непрочитанных сообщений. Цветок желаний / Цветок папоротника [01-16 из 16] (Сергей Лялин) [Мелодрама, 2015] HDTVRip

Dracon

192 | 79

8.63 ГБ

В этой теме нет новых непрочитанных сообщений. Цветок желаний / Цветок папоротника [01-16 из 16] (Сергей Лялин) [Мелодрама, 2015] HDTV 1080i

Dracon

30 | 13

43.25 ГБ

В этой теме нет новых непрочитанных сообщений. Аз воздам [Серии 1-4 из 4] (Сергей Раевский) [Драма, остросюжетный, 2015] SATRip

Dracon

188 | 13

2.39 ГБ

В этой теме нет новых непрочитанных сообщений. Пропавший жених [Серии 1-4 из 4] (Сергей Кешишев) [Криминал, Мелодрама, 2015] SATRip

Dracon

18 | 7

2.48 ГБ

В этой теме нет новых непрочитанных сообщений. Братаны 4 [01-32 из 32] [Боевик, криминал, детектив, 2014] SATRip

Dracon

258 | 102

19.45 ГБ

В этой теме нет новых непрочитанных сообщений. Морские дьяволы. Смерч [02x33-64 из 64] (Сергей Винокуров, Евгений Малков...) [Боевик, детектив, криминал, 2015] SATRip

Dracon

38 | 8

18.88 ГБ


Начать новую тему Ответить на тему  [ 1 сообщение ] 




Для Мосгорсуда, Роскомнадзора и рекламодателей:: mosgorsud-torrent[собачка]yandex.ru