Торрент файл
скачать торрент магнет ссылка Добавлен: 15 мар 2012, 18:40
Размер: 1.51 ГБ
Сидеров: 2
Личеров: 3
Статус: (drink)
Автор

СообщениеДобавлено: 15 мар 2012, 18:40 

Не в сети
Супермодератор
Аватара пользователя
Дата регистрации:
11 апр 2010, 18:10
Спасибо: 5799 / 7
Сообщения: 56779
Мы с Ростова Сезон: 1 Серии: 1-5 из ?
Год выпуска: 2012
Производство: Россия
Жанр: Комедия, криминал, реалити
Продолжительность: ~ 00:24:00
Субтитры: нет

Режиссёр: Руслан Кечеджиян

В ролях: Грант, Игорь, Саша и др.

Описание: "Мы с Ростова" - первый ненормальный сериал. Ни одного актёра, ни слова цензуры, ни грамма лжи. ПЕРЕЦ предупреждает: "Мы с Ростова" взрывоопасен для стереотипных представлений о сериалах. Режиссёр Руслан Кечеджиян снял гибрид документалистики, реалити и игрового кино - без ГМО и красителей, только натуральная жизнь. Сериал получился ненормальным. Абсолютно ненормальным. Грант, Игорь и Саша - три товарища. Почти как у Ремарка, только вместо Германии 20-х - Россия 2000-х, неблагополучные районы больших городов, мир ларьков, пивнух, букмекерских контор и офисов, шансона, афёр и грязных денег, где каждый пробивает себе дорогу, как умеет. Первый ненормальный сериал "Мы с Ростова" без осуждения и прикрас показывает суровые реалии, совершенно нормальные для типичного жителя Западного жилого массива - бандитского района Ростова.
Добавлена 5 серия просьба перекачать торрент-файл.
В релизе присутствует реклама!
Качество: SatRip
Формат: AVI
Видео кодек: DivX
Аудио кодек: MP3
Видео: 720x400 (1.80:1), 25 fps, DivX Codec 6.8.5/6.9.1 ~1999 kbps avg, 0.28 bit/pixel
Аудио: 48 kHz, MPEG Layer 3, 2 ch, ~128.00 kbps avg
MI
General
Complete name : E:\Videos\Сериалы\Мы с Ростова\My.s.Rostova.e01.2012.RiperAM.avi
Format : AVI
Format/Info : Audio Video Interleave
File size : 716 MiB
Duration : 46mn 49s
Overall bit rate : 2 137 Kbps
Writing library : VirtualDub build 30009/release
Video
ID : 0
Format : MPEG-4 Visual
Format settings, BVOP : 1
Format settings, QPel : No
Format settings, GMC : No warppoints
Format settings, Matrix : Default (H.263)
Muxing mode : Packed bitstream
Codec ID : DX50
Codec ID/Hint : DivX 5
Duration : 46mn 49s
Bit rate : 1 999 Kbps
Width : 720 pixels
Height : 400 pixels
Display aspect ratio : 16:9
Frame rate : 25.000 fps
Color space : YUV
Chroma subsampling : 4:2:0
Bit depth : 8 bits
Scan type : Progressive
Compression mode : Lossy
Bits/(Pixel*Frame) : 0.278
Stream size : 670 MiB (94%)
Writing library : DivX 6.8.5 (UTC 2009-08-20)
Audio
ID : 1
Format : MPEG Audio
Format version : Version 1
Format profile : Layer 3
Mode : Joint stereo
Mode extension : MS Stereo
Codec ID : 55
Codec ID/Hint : MP3
Duration : 46mn 49s
Bit rate mode : Constant
Bit rate : 128 Kbps
Channel(s) : 2 channels
Sampling rate : 48.0 KHz
Compression mode : Lossy
Stream size : 42.9 MiB (6%)
Alignment : Split accross interleaves
Interleave, duration : 40 ms (1.00 video frame)
Interleave, preload duration : 500 ms
Скриншоты
Внимание! Раздача ведётся путём добавления новых серий
Внимание! Раздача ведётся путём добавления новых серий; при каждом добавлении создаётся новый торрент. Чтобы начать докачку новой серии, пользователям необходимо сделать следующее:
(1) остановить скачивание,
(2) удалить старый торрент у себя из клиента (старые серии удалять не надо),
(3) скачать новый торрент и запустить его у себя в клиенте вместо старого, при этом указать клиенту путь в старую папку куда и должно происходить скачивание новых серий.
Ваш клиент при этом должен произвести хеширование (проверку) старой папки (если не производит сам - помогите ему сделать это), и будет докачивать только те серии которых у вас ещё нет. Старые серии при этом не удаляются, а продолжают раздаваться!
Eсли вы уже удалили старые серии, то предотвратить повторную закачку старых серий можно, отжав галочку в соответствующих местах при запуске нового торрента. По возможности, желательно не удалять старые серии как можно дольше чтобы релизёр не столько продолжал раздавать старые серии, а смог сконцентрироваться на новых.
Все раздачи сериала




реклама партнёра


Вернуться к началу
 Профиль Отправить личное сообщение  
 
   Похожие торренты   Автор   Торрент   Размер 
В этой теме нет новых непрочитанных сообщений. Безмолвие / Молчание / Suskunlar / 1 сезон 1-10 серии из 16 [боевик, триллер, драма, криминал, 2012] SATRip, Avo

salma3

0 | 4

10.76 ГБ

В этой теме нет новых непрочитанных сообщений. Ментовские войны [Сезон 8 серии 16] [Криминал, 2014] SATRip

Dracon

10 | 2

616.73 МБ

В этой теме нет новых непрочитанных сообщений. Ментовские войны [Сезон 8 серии 1-15 из 16] [Криминал, 2014] SATRip

Dracon

47 | 6

8.95 ГБ

В этой теме нет новых непрочитанных сообщений. Ищейка / The closer / 7 сезон 1-21 серии из 21 [драма, криминал, детектив, 2012] HDTVRip, Avo

salma3

49 | 30

11.06 ГБ

В этой теме нет новых непрочитанных сообщений. Такая работа / 3 сезон: 1-32 серии из 32 [детектив, криминал, 2016] SATRip

salma3

102 | 115

17.33 ГБ

В этой теме нет новых непрочитанных сообщений. Голубая кровь / Blue Bloods / 3 сезон 1-5 серии из 23 [Драма, криминал, 2012] WEB-DLRip, Dvo [CBS Drama]

salma3

1 | 1

1.97 ГБ

В этой теме нет новых непрочитанных сообщений. Пара из Ростова [2014 г., Amateur, CamRip]

kite

6 | 3

97.51 МБ


Начать новую тему Ответить на тему  [ 1 сообщение ] 




Для Мосгорсуда, Роскомнадзора и рекламодателей:: mosgorsud-torrent[собачка]yandex.ru