Торрент файл
скачать торрент магнет ссылка Добавлен: 15 мар 2012, 10:46
Размер: 1.76 ГБ
Сидеров: 0
Личеров: 4
Автор

СообщениеДобавлено: 15 мар 2012, 10:46 

Не в сети
Аватара пользователя
Дата регистрации:
19 окт 2011, 11:19
Возраст: 24
Спасибо: 507 / 1
Сообщения: 8830
Эврика, 4 сезон 11 серия / Eureka



Пуск / Liftoff

Перевод: Профессиональный (многоголосый, закадровый), Субтитры: отсутствуют
Формат: WEB-DL, MKV, H.264\AVC, AC3
Страна: США
Режиссер: Майк Рол, Майкл Ланж, Майкл Робисан
Жанр: Фантастика, комедия, драма, детектив
Всего серий: 20
Продолжительность: 00:44:03
Год выпуска: 2010

В ролях: Колин Фергюсон, Нил Грэйстон, Салли Ричардсон, Эрика Серра, Джо Мортон, Джордан Хинсон, Крис Готье, Эд Куинн, Найолл Мэттер, Дебра Фарентино, Джеймс Кэллис и др.

Описание: Поскольку Вторая Мировая Война закончилась уничтожением Хиросимы и Нагасаки, наука и изобретения стали приоритетными во всем мире. Америка чуть не проиграла гонку с атомными бомбами; это не должно повториться..

С помощью Альберта Эйнштейна и других доверенных советников, Президент Гарри С. Труман уполномочил начать заселение удаленной области Тихоокеанского Северо-запада, чтобы сохранить интеллектуальные ценности Америки. Там величайшие умы, вундеркинды, были бы в состоянии жить и работать в благосклонной окружающей среде. Лучшие архитекторы и планировщики были уполномочены построить такое место для этих превосходных гениев, где бы они жили и имели лучшее образование для своих детей, лучшую систему здравоохранения, все для комфортного проживания жизни. Это общество жило бы так же, как все, но с небольшим различием: этот город не обозначен ни на одной карте. О нем никто не знает, кроме Пентагона..

Так появился город Эврика. Но в этом маленьком городе все совсем не так, как в других маленьких городах. Большинство «квантовых прыжков» в науке и технике в течение 50 лет было произведено именно элитными исследователями из Эврики. К сожалению, научные исследования всегда непредсказуемы, и годы экспериментов привели к некоторым побочным явлениям..

От невостребованной любви до профессиональной ревности, от склонности до депрессии, проблемы горожан Эвреки увеличиваются с каждым днем. Но с уникальными талантами населения и безграничными ресурсами, эти провинциальные проблемы могут стать большими проблемами. Именно там, где человеческая непрочность и супернаука сталкиваются, Эврика, начинается..


Рейтинг на:


Видео: 1280x720 (16:9), MPEG4/ISO/AVC, 23,976 fps, 4829 Kbps, 0.219 bit/pixel
Аудио RUS: 48,0 kHz, AC-3,2 ch, Front: L, R, 384 kbps avg
Аудио ENG: 48,0 kHz, AC-3,2 ch, Front: L, R, 384 kbps avg

Доп. информация:

Релиз:


Общее
Уникальный идентификатор: 178228528085423016346993738393732202786 (0x861590E006DCB519B6FFD5060C3B4122)
Полное имя: C:\Documents and Settings\Admin\Рабочий стол\720р\Eureka_S04E11_[tfile.ru].mkv
Формат: Matroska
Размер файла: 1,76 Гбайт
Продолжительность: 44 м.
Общий поток: 5710 Кбит/сек
Дата кодирования: UTC 2011-07-16 19:54:21
Программа кодирования: mkvmerge v4.3.0 ('Escape from the Island') сборка от Sep5 2010 10:30:51
Библиотека кодирования: libebml v1.0.0 + libmatroska v1.0.0

Видео
Идентификатор: 1
Формат: AVC
Формат/Информация: Advanced Video Codec
Профиль формата:
Параметр CABAC формата: Нет
Параметр ReFrames формата: 3 кадра
Идентификатор кодека: V_MPEG4/ISO/AVC
Продолжительность: 44 м.
Битрейт: 4829 Кбит/сек
Ширина: 1280 пикс.
Высота: 720 пикс.
Соотношение сторон: 16:9
Частота кадров: 23,976 кадр/сек
Стандарт вещания: NTSC
Цветовое пространство: YUV
Подвыборка цветности: 4:2:0
Битовая глубина: 8 бит
Тип развёртки: Прогрессивная
Бит/(Пиксели*Кадры): 0.219
Размер потока: 1,49 Гбайт (85%)
Основные цвета: BT.601-6 525, BT.1358 525, BT.1700 NTSC, SMPTE 170M
Характеристики трансфера: BT.709-5, BT.1361
Коэффициенты матрицы: BT.601-6 525, BT.1358 525, BT.1700 NTSC, SMPTE 170M

Аудио #1
Идентификатор: 2
Формат: AC-3
Формат/Информация: Audio Coding 3
Расширение режима: CM (complete main)
Идентификатор кодека: A_AC3
Продолжительность: 44 м.
Вид битрейта: Постоянный
Битрейт: 384 Кбит/сек
Каналы: 2 канала
Расположение каналов: Front: L R
Частота: 48,0 КГц
Битовая глубина: 16 бит
Метод сжатия: С потерями
Размер потока: 121 Мбайт (7%)

Аудио #2
Идентификатор: 3
Формат: AC-3
Формат/Информация: Audio Coding 3
Расширение режима: CM (complete main)
Идентификатор кодека: A_AC3
Продолжительность: 44 м.
Вид битрейта: Постоянный
Битрейт: 384 Кбит/сек
Каналы: 2 канала
Расположение каналов: Front: L R
Частота: 48,0 КГц
Битовая глубина: 16 бит
Метод сжатия: С потерями
Размер потока: 121 Мбайт (7%)











Поделиться:




реклама партнёра


Вернуться к началу
 Профиль Отправить личное сообщение  
 
   Похожие торренты   Автор   Торрент   Размер 
В этой теме нет новых непрочитанных сообщений. Эврика / Eureka [S04] [фантастика, драма, комедия, 2010-2011] BDRemux 1080р, Mvo [LostFilm, Sony Sci-Fi]

salma3

10 | 17

185.52 ГБ

В этой теме нет новых непрочитанных сообщений. Эврика / Eureka [S01] [фантастика, драма, комедия, 2006] BDRemux 1080р, Avo+Mvo [LostFilm, СТС]

salma3

25 | 55

94.07 ГБ

В этой теме нет новых непрочитанных сообщений. Эврика / Eureka [S02] [фантастика, драма, комедия, 2007] BDRemux 1080р, Avo+Mvo [LostFilm, СТС]

salma3

13 | 25

100.05 ГБ

В этой теме нет новых непрочитанных сообщений. Эврика / Eureka [S05] [фантастика, драма, комедия, 2012] BDRemux 1080р, Mvo [LostFilm, Sony Sci-Fi]

salma3

11 | 14

92.36 ГБ

В этой теме нет новых непрочитанных сообщений. Эврика / Eureka [S03] [фантастика, драма, комедия, 2008-2009] BDRemux 1080р, Avo+Mvo [LostFilm, СТС]

salma3

5 | 20

138.91 ГБ

В этой теме нет новых непрочитанных сообщений. Последний корабль / The Last Ship (Сезон 1, Серия 1-10 из 10) ( Майкл Бэй, Тони Марк, Тодд Арноу) [2014, Фантастика, боевик, WEBDLRip-AVC 1080р] [MVO] [LostFilm]

Враг Нароода

66 | 43

22.38 ГБ

В этой теме нет новых непрочитанных сообщений. Последний корабль / The Last Ship (Сезон 1, Серия 1-6 из 10) ( Майкл Бэй, Тони Марк, Тодд Арноу) [2014, Фантастика, боевик, WEBDLRip-AVC 1080р] [MVO] [LostFilm]

Baranov 55

3 | 6

13.54 ГБ


Начать новую тему Ответить на тему  [ 1 сообщение ] 




Для Мосгорсуда, Роскомнадзора и рекламодателей:: mosgorsud-torrent[собачка]yandex.ru