Торрент файл
скачать торрент магнет ссылка Добавлен: 14 мар 2012, 22:29
Размер: 14.63 ГБ
Сидеров: 36
Личеров: 13
Автор

СообщениеДобавлено: 14 мар 2012, 22:29 

Не в сети
Администратор
Дата регистрации:
08 апр 2010, 18:00
Спасибо: 1075 / 220
Сообщения: 17131

Год выпуска: 2010
Производство: Россия / Гуд Стори Медиа
Жанр: комедия
Продолжительность: ~00:23:00
Субтитры: нет
Режиссёр:Жанна Кадникова

В ролях:
Николай Наумов (Колян), Антон Богданов (Антоха), Владимир Селиванов (Вован), Станислав Тляшев (Эдик), Зоя Бербер (Лера), Марина Федункив (Марина, мама Коляна), Мария Скорницкая (Машка), Валентина Мазунина (Валя), Армен Бежанян (Армен), Игорь Ознобихин (участковый Игорь Сергеевич), Алексей Базанов (Базанов), Елена Печищева-

Описание:
Обычный, рядовой российский парень Коля не может определиться между жизнью «на районе» и миром пермской элиты общества. На протяжении всего сериала его ждут увлекательные и смешные истории.

Качество: DVDRip
Формат: AVI
Видео кодек: XviD
Аудио кодек: AC3
Видео: ~640x480 (1.33:1), 25 fps, XviD build 50 ~1525 kbps avg, 0.20 bit/pixel
Аудио: 48 kHz, AC3 Dolby Digital, 2/0 (L,R) ch, ~192.00 kbps avg
-
Отчет MediaInfo
Общее
Полное имя : K:\Realnie_pacany_1-2_Sezony_DVDRip_by_Dalemake\1 серия.avi
Формат : AVI
Формат/Информация : Audio Video Interleave
Размер файла : 299 Мбайт
Продолжительность : 23 м.
Общий поток : 1767 Кбит/сек
Программа кодирования : VirtualDubMod 1.5.10.3 | http://www.virtualdub-fr.org || (build 2550/release)
Библиотека кодирования : VirtualDubMod build 2550/release
Видео
Идентификатор : 0
Формат : MPEG-4 Visual
Профиль формата : Advanced Simple@L5
Параметр BVOP формата : 1
Параметр QPel формата : Нет
Параметр GMC формата : Без точки перехода
Параметр матрицы формата : Выборочная
Идентификатор кодека : XVID
Идентификатор кодека/Подсказка : XviD
Продолжительность : 23 м.
Битрейт : 1565 Кбит/сек
Ширина : 640 пикс.
Высота : 480 пикс.
Соотношение сторон : 4:3
Частота кадров : 25,000 кадр/сек
Цветовое пространство : YUV
Подвыборка цветности : 4:2:0
Битовая глубина : 8 бит
Тип развёртки : Прогрессивная
Метод сжатия : С потерями
Бит/(Пиксели*Кадры) : 0.204
Размер потока : 264 Мбайт (89%)
Библиотека кодирования : XviD 1.2.1 (UTC 2008-12-04)
Аудио
Идентификатор : 1
Формат : AC-3
Формат/Информация : Audio Coding 3
Расширение режима : CM (complete main)
Идентификатор кодека : 2000
Продолжительность : 23 м.
Вид битрейта : Постоянный
Битрейт : 192 Кбит/сек
Канал(ы) : 2 канала(ов)
Расположение каналов : Front: L R
Частота : 48,0 КГц
Битовая глубина : 16 бит
Метод сжатия : С потерями
Размер потока : 32,4 Мбайт (11%)
Выравнивание : Разделение по промежуткам
Продолжительность промежутка : 40 мс. (1,00 видеокадр)
Время предзагрузки промежутка : 500 ms
Скриншоты
-




реклама партнёра


Вернуться к началу
 Профиль Отправить личное сообщение  
 
   Похожие торренты   Автор   Торрент   Размер 
В этой теме нет новых непрочитанных сообщений. Реальные пацаны [7 сезон 1-20 серия из 20] (Жанна Кадникова) [Комедийный телесериал, 2015] SATRip

Dracon

896 | 463

5.97 ГБ

В этой теме нет новых непрочитанных сообщений. Реальные пацаны [07х01-20 из 20] (Жанна Кадникова) [Комедийный телесериал, 2015] WEB-DL 720p

Dracon

140 | 201

9.78 ГБ

В этой теме нет новых непрочитанных сообщений. Реальные пацаны [7 сезон / 1-20 из 20] [Комедийный телесериал, 2014] WEB-DLRip

Dracon

33 | 40

6.13 ГБ

В этой теме нет новых непрочитанных сообщений. Улицы разбитых фонарей [Cезон 14 серии 1-36 из 36] (Виктор Шкуратов, Павел Мальков, Жанна Коханова) [Боевик, Криминал, 2014] SATRip

Dracon

30 | 16

21.5 ГБ

В этой теме нет новых непрочитанных сообщений. Груз [1-8 серии из 24] [Боевик, криминал, реальные события, 2013] SATRip

Dracon

5 | 2

4.12 ГБ

В этой теме нет новых непрочитанных сообщений. Битва за Севастополь [Серии 1-4 из 4] (Сергей Мокрицкий) [Военный, ВОВ, драма, реальные события, 2015] WEBRip

Dracon

17 | 3

2.32 ГБ

В этой теме нет новых непрочитанных сообщений. Фрейзер / Frasier / 3 сезон 1-24 серии из 24 [комедия, 1994-1995] DVDRip, Mvo [SET]

salma3

0 | 2

4.66 ГБ


Начать новую тему Ответить на тему  [ 1 сообщение ] 




Для Мосгорсуда, Роскомнадзора и рекламодателей:: mosgorsud-torrent[собачка]yandex.ru