Торрент файл
скачать торрент магнет ссылка Добавлен: 14 мар 2012, 18:23
Размер: 1.23 ГБ
Сидеров: 0
Личеров: 6
Автор

СообщениеДобавлено: 14 мар 2012, 18:23 

Не в сети
Аватара пользователя
Дата регистрации:
19 окт 2011, 11:19
Возраст: 24
Спасибо: 519 / 1
Сообщения: 8830
Тайны Смолвилля, 10 сезон 14 серия / Smallville

Перевод: Любительский (многоголосый), закадровый, cубтитры: отсутствуют
Формат: WEB-DL 720p, MKV, H.264, MP3
Страна: США
Режиссер: Тим Скэнлан
Жанр: Фантастика, Драма, Приключения
Всего серий: 22
Продолжительность: 00:42:28
Год выпуска: 2011

В ролях: Том Уэллинг (Tom Welling), Эрика Дьюрэнс (Erica Durance), Эллисон Мэк (Allison Mack), Кессиди Фримэн (Cassidy Freeman), Джон Шнайдер (John Schneider), Джастин Хартли (Justin Hartley), Джон Гловер(John Glover)

Описание: Это последняя глава в легенде о Супермене. На это раз Кларку придётся сразиться с самым главным противником - Лексом Лутором.
Тьма наступает. Она просыпается и в самом Кларке, и он начинает бояться, а что если ему не суждено стать защитником Земли, стать героем? Что если он не сумеет?


Рейтинг на IMDB:



Видео: 1280х720 (16:9), H.264, 23,976 fps, MPEG4 AVC, High@L3.1, 3933 kbps avg, 0.178 bit/pixel
Аудио: 48 kHz, MPEG Audio, 2 ch (L,R), 128 kbps avg

Доп. информация:

Перевод: Swan
Озвучка: Smart's studios

РЕЛИЗ:





Общее
Уникальный идентификатор: 229762444667878607550869077276580833908 (0xACDAA3216248F431AE87005BD52EEA74)
Полное имя: C:\Documents and Settings\Admin\Мои документы\Мои видеозаписи\фильмы\Моё\констракшн\супермен\14 серия\Smallville_s10e14_[tfile.ru].mkv
Формат: Matroska
Размер файла: 1,23 Гбайт
Продолжительность: 42 м.
Общий поток: 4143 Кбит/сек
Название фильма: Smallville.S10E14.Masquerade.720p.WEB.DL.AAC2.0.H264.SURFER.mkv 15121
Дата кодирования: UTC 2011-02-20 11:41:48
Программа кодирования: mkvmerge v4.0.0 ('The Stars were mine') сборка от Jun6 2010 16:18:42
Библиотека кодирования: libebml v1.0.0 + libmatroska v1.0.0

Видео
Идентификатор: 1
Формат: AVC
Формат/Информация: Advanced Video Codec
Профиль формата: High@L3.1
Параметр CABAC формата: Нет
Параметр ReFrames формата: 2 кадры
Параметры GOP формата: M=2, N=25
Идентификатор кодека: V_MPEG4/ISO/AVC
Продолжительность: 42 м.
Битрейт: 3933 Кбит/сек
Ширина: 1280 пикс.
Высота: 720 пикс.
Соотношение сторон: 16:9
Частота кадров: 23,976 кадр/сек
Цветовое пространство: YUV
Подвыборка цветности: 4:2:0
Битовая глубина: 8 бит
Тип развёртки: Прогрессивная
Бит/(Пиксели*Кадры): 0.178
Размер потока: 1,17 Гбайт (95%)
Заголовок: Smallville.S10E14.Masquerade.720p.WEB-DL.AAC2.0.H264-SURFER
Язык: English
Основные цвета: BT.709-5, BT.1361, IEC 61966-2-4, SMPTE RP177
Характеристики трансфера: BT.709-5, BT.1361
Коэффициенты матрицы: BT.709-5, BT.1361, IEC 61966-2-4 709, SMPTE RP177

Аудио
Идентификатор: 2
Формат: MPEG Audio
Версия формата: Version 1
Профиль формата: Layer 3
Режим: Joint stereo
Расширение режима: MS Stereo
Идентификатор кодека: A_MPEG/L3
Идентификатор кодека/Подсказка: MP3
Продолжительность: 42 м.
Вид битрейта: Постоянный
Битрейт: 128 Кбит/сек
Канал(ы): 2 канала(ов)
Частота: 48,0 КГц
Метод сжатия: С потерями
Размер потока: 38,9 Мбайт (3%)





Поделиться:




реклама партнёра


Вернуться к началу
 Профиль Отправить личное сообщение  
 
   Похожие торренты   Автор   Торрент   Размер 
В этой теме нет новых непрочитанных сообщений. Тайны Смолвиля / Smallville [S01-10] [фантастика, драма, мелодрама, приключения, 2001-2011] WEB-DLRip, DVDRip, HDRip, Mvo [СТС]

salma3

83 | 206

79.92 ГБ

В этой теме нет новых непрочитанных сообщений. Тайны Смолвиля / Smallville [S03] [драма, фантастика, 2003-2004] WEB-DL 720p, Mvo+Sub [СТС]

salma3

20 | 25

29.42 ГБ

В этой теме нет новых непрочитанных сообщений. Тайны Смолвиля / Smallville [S02] [драма, фантастика, 2002-2003] WEB-DL 720p, Mvo+Sub [СТС]

salma3

30 | 35

30.76 ГБ

В этой теме нет новых непрочитанных сообщений. Тайны Смолвиля / Smallville [S04] [драма, фантастика, 2004-2005] WEB-DL 720p, Mvo+Sub [СТС]

salma3

38 | 26

29.08 ГБ

В этой теме нет новых непрочитанных сообщений. Тайны Смолвиля / Smallville [S06] [драма, фантастика, 2006-2007] BDRip 720p, Mvo+Sub [СТС / AXN Sci-F]

salma3

9 | 8

49.87 ГБ

В этой теме нет новых непрочитанных сообщений. Тайны Смолвиля / Smallville [S08] [драма, фантастика, 2008-2009] BDRip 720p, Mvo+Sub [СТС / AXN Sci-F]

salma3

6 | 13

49.77 ГБ

В этой теме нет новых непрочитанных сообщений. Тайны Смолвиля / Smallville [S05] [драма, фантастика, 2005-2006] HDDVDRip 720p, Mvo+Sub [СТС / AXN Sci-F]

salma3

13 | 12

34.53 ГБ


Начать новую тему Ответить на тему  [ 1 сообщение ] 




Для Мосгорсуда, Роскомнадзора и рекламодателей:: mosgorsud-torrent[собачка]yandex.ru