Торрент файл
скачать торрент магнет ссылка Добавлен: 14 мар 2012, 18:19
Размер: 22.02 ГБ
Сидеров: 35
Личеров: 39
Статус: (drink)
Автор

СообщениеДобавлено: 14 мар 2012, 18:19 

Не в сети
Аватара пользователя
Дата регистрации:
19 окт 2011, 11:19
Возраст: 25
Спасибо: 531 / 1
Сообщения: 8830
4400, 1-4 сезоны 1-35 серии из 44 / The 4400


Перевод: Профессиональный (полное дублирование) «Рен-ТВ», cубтитры: отсутствуют
Формат: HDTVRip, MKV, H.264/AVC, AC3
Страна: США
Режиссер: Скотт Питерс, Винс Мисиано, Ник Копус
Жанр: Фантастика, триллер, драма, детектив
Всего серий: 44
Продолжительность: 01:21:39 + 34 х 00:41
Год выпуска: 2004-2007

В ролях: Жаклин МакКензи, Джоэль Гретш, Патрик Флюгер, Кончита Кэмпбелл, Чэд Фауст, Ричард Кэхэн, Махершалалхашбаз Али, Билл Кэмпбелл, Мэгалин Эчиканвоке, Саманта Феррис и др.

Описание: 4400 человек, пропавших без вести в разные годы 20 века, неожиданно возвращаются на землю, оставшись такими же, как они были в день исчезновения. Обеспокоенные власти начинают расследование, чтобы выяснить, где же были эти люди и почему их вернули обратно. Очень скоро становится понятно, что их появление может изменить мир самым непредсказуемым образом.

Рейтинг:


Видео: 1600х900 (16:9), MPEG4 AVC, , 25,000 fps, ~2000 kbps, 0.056 bit/pixel
Аудио: 48 kHz, AC3 Dolby Digital, 2 ch (L, R), 192 kbps avg

Доп. информация: Фрагменты, отсутствующие в дубляже, выполнены переводом студии «Kravec»


Общее
Уникальный идентификатор: 203141619797798466880479515283930529733 (0x98D3A7214EDD3093AB2D864FC00CBFC5)
Полное имя: E:\the_4400_s01-04_[tfile.ru]\the_4400_s01_[tfile.ru]\the_4400_s01e00_[tfile.ru].mkv
Формат: Matroska
Размер файла: 1,25 Гбайт
Продолжительность: 1 ч. 21 м.
Общий поток: 2194 Кбит/сек
Дата кодирования: UTC 2011-05-19 09:14:03
Программа кодирования: mkvmerge v2.4.1 ('Use Me') built on Dec5 2008 18:30:05
Библиотека кодирования: libebml v0.7.7 + libmatroska v0.8.1

Видео
Идентификатор: 1
Формат: AVC
Формат/Информация: Advanced Video Codec
Профиль формата:
Параметр CABAC формата: Да
Параметр ReFrames формата: 4 кадры
Идентификатор кодека: V_MPEG4/ISO/AVC
Продолжительность: 1 ч. 21 м.
Битрейт: 2000 Кбит/сек
Ширина: 1600 пикс.
Высота: 900 пикс.
Соотношение сторон: 16:9
Частота кадров: 25,000 кадр/сек
Цветовое пространство: YUV
Подвыборка цветности: 4:2:0
Битовая глубина: 8 бит
Тип развёртки: Прогрессивная
Бит/(Пиксели*Кадры): 0.056
Размер потока: 1,12 Гбайт (89%)
Библиотека кодирования: x264 core 114 r1913 5fd3dce
Настройки программы: cabac=1 / ref=3 / deblock=1:0:0 / analyse=0x3:0x113 / me=hex / subme=7 / psy=1 / psy_rd=1.00:0.00 / mixed_ref=1 / me_range=16 / chroma_me=1 / trellis=1 / 8x8dct=1 / cqm=0 / deadzone=21,11 / fast_pskip=1 / chroma_qp_offset=-2 / threads=3 / sliced_threads=0 / nr=0 / decimate=1 / interlaced=0 / constrained_intra=0 / bframes=3 / b_pyramid=2 / b_adapt=1 / b_bias=0 / direct=1 / weightb=1 / open_gop=0 / weightp=2 / keyint=250 / keyint_min=25 / scenecut=40 / intra_refresh=0 / rc_lookahead=40 / rc=2pass / mbtree=1 / bitrate=2000 / ratetol=1.0 / qcomp=0.60 / qpmin=0 / qpmax=69 / qpstep=4 / cplxblur=20.0 / qblur=0.5 / vbv_maxrate=50000 / vbv_bufsize=50000 / nal_hrd=none / ip_ratio=1.40 / aq=1:1.00

Аудио
Идентификатор: 2
Формат: AC-3
Формат/Информация: Audio Coding 3
Расширение режима: CM (complete main)
Идентификатор кодека: A_AC3
Продолжительность: 1 ч. 21 м.
Вид битрейта: Постоянный
Битрейт: 192 Кбит/сек
Канал(ы): 2 канала(ов)
Расположение каналов: Front: L R
Частота: 48,0 КГц
Битовая глубина: 16 бит
Метод сжатия: С потерями
Размер потока: 112 Мбайт (9%)
Язык: Russian









Внимание! Раздача ведётся путём добавления новых серий; при каждом добавлении создётся новый торрент. Чтобы начать докачку новой серии, пользователям необходимо сделать следующее:
(1) остановить скачивание,
(2) удалить старый торрент у себя из клиента (старые серии удалять не надо),
(3) скачать новый торрент и запустить его у себя в клиенте вместо старого, при этом указать клиенту путь в старую папку куда и должно происходить скачивание новых серий.

Ваш клиент при этом должен произвести хеширование (проверку) старой папки (если не производит сам - помогите ему сделать это), и будет докачивать только те серии которых у вас ещё нет. Старые серии при этом не удаляются, а продолжают раздаваться!

Eсли вы уже удалили старые серии, то предотвратить повторную закачку старых серий можно, отжав галочку в соответсвующих местах при запуске нового торрента. По возможности, желательно не удалять старые серии как можно дольше чтобы релизёр не столько продолжал раздавать старые серии, а смог сконцентрироваться на новых.



Поделиться:




реклама партнёра


Вернуться к началу
 Профиль Отправить личное сообщение  
 
   Похожие торренты   Автор   Торрент   Размер 
В этой теме нет новых непрочитанных сообщений. Господство / Pоwer / 1-3 сезоны 1-28 серии из 28 [криминал, триллер, драма, 2014-2016] HDTVRip, Mvo

salma3

30 | 13

18.43 ГБ

В этой теме нет новых непрочитанных сообщений. Доктор Кто, 1-7 сезоны 1-102 серии из 102 / Doctor Who (Грэм Харпер, Крис Чибнелл) [2005-2013, фантастика, приключения, комедия, семейный, DVDRip/HDTVRip/WEB-DLRip, [СТС, BaibaKo]]

Dracon

74 | 256

52.38 ГБ

В этой теме нет новых непрочитанных сообщений. Пингвиненок Пороро / Pororo the Little Penguin / 1-3 сезоны: 1-156 серии из 156 [мультфильм, детский, 2007] WEB-DLRip, Dub

salma3

71 | 43

13.64 ГБ

В этой теме нет новых непрочитанных сообщений. Выживши / Survivors / 1-2 сезоны 1-12 серии из 12 [фантастика, драма, 2008-2010] WEB-DLRip, Mvo [LostFilm]

salma3

18 | 7

5.81 ГБ

В этой теме нет новых непрочитанных сообщений. Хемлок Гроув / Hemlock Grove [S01-03] (Деран Сарафьян, Т.Дж. Скотт) [2013-2015, Детектив, Триллер, Ужасы, Фантастика, WEBRip 720p | NewStudio]

Dracon

37 | 115

54.17 ГБ

В этой теме нет новых непрочитанных сообщений. Джеронимо Стилтон / Geronimo Stilton / 1-2 сезоны: 52 серии из 52 [мультфильм, детектив, приключения, семейный, 2009–2012] SATRip, Dub

salma3

65 | 35

14.27 ГБ

В этой теме нет новых непрочитанных сообщений. Ментовские войны [1-9 сезоны: 1-124 серии из 124 + Спин-оффы + 2 Фильма о фильме] ( Павел Мальков, Егор Абросимов, Сергей Раевский, Денис Скворцов и другие) [Криминал, 2004-2015] DVDRip

Dracon

14 | 23

79.84 ГБ


СообщениеДобавлено: 08 янв 2013, 06:01 

Не в сети
Дата регистрации:
23 май 2012, 21:24
Спасибо: 0 / 0
Сообщения: 1
Мне нравится именно эта раздача: сочетание разрешения, размера и наличие дубляжа... огорчает лишь, что 4-й сезон тут не полный. :(


Вернуться к началу
 Профиль Отправить личное сообщение  
 
Начать новую тему Ответить на тему  [ Сообщений: 2 ] 




Для Мосгорсуда, Роскомнадзора и рекламодателей:: mosgorsud-torrent[собачка]yandex.ru