Торрент файл
скачать торрент магнет ссылка Добавлен: 14 мар 2012, 14:46
Размер: 11.99 ГБ
Сидеров: 0
Личеров: 6
Автор

СообщениеДобавлено: 14 мар 2012, 14:46 

Не в сети
Аватара пользователя
Дата регистрации:
19 окт 2011, 11:19
Возраст: 24
Спасибо: 507 / 1
Сообщения: 8830
За Гранью / Fringe


Сезон 3 Серии 1-7 из 22

Перевод:Профессиональный (Многоголосый, закадровый) Субтитры: Есть (Русские, Английские)
Формат:WEB-DL 720p, MKV, AVC, AC3
Страна:США, Канада / Warner Bros. Television
Режиссёр:Брэд Андерсон, Фред Туа, Джо Чаппелль
Жанр:Ужасы, Фантастика, Триллер, Драма, Детектив
Всего серий:22
Продолжительность:7 х 00:45
Год выпуска:2010-2011

В ролях:Анна Торв, Джошуа Джексон, Лэнс Реддик, Блэр Браун, Джесика Николь, Джон Ноубл, Кирк Асеведо, Майкл Серверис, Марк Вэлли, Эри Грейнор

Описание:В сериале рассказывается о специальном агенте ФБР Оливии Данэм , безумном ученом Уолторе Бишопе и его сыне Питере, которые исследуют аспекты науки за гранью (телепатия, левитация, невидимость, реинкарнация, генетическая мутация, и т.д). Происходит ряд достаточно загадочных событий, называемые «Схемой» (например, новорождённый ребёнок, за считанные минуты взрослеет и умирает; автобус наполняется странным веществом, которое мгновенно затвердевает, а пассажиры становятся как москиты в янтаре), как будто кто-то экспериментирует, но уже над целым миром, а Оливия, Питер и Уолтер берутся за расследование этих странных событий, чтобы определить их источник. Они обнаруживают связь «Схемы» с корпорацией под названием Мэссив Дайнемик, которая является ведущей глобальной исследовательской компанией, с кучей патентов на многие новые и важные технологии..

Рейтинг:


Видео:1280x720 (16/9) at 23.976 fps, MPEG-4 AVC, ~4000 kbps, 0.179 bit/pixel.
Аудио#1:Русский: 48 kHz, AC3, 3/2 (L,C,R,l,r) + LFE ch, ~448.00 kbps avg |LostFilm|
Аудио#2:Русский: 48 kHz, AC3, 3/2 (L,C,R,l,r) + LFE ch, ~448.00 kbps avg |Novafilm|
Аудио#3:Украинский: 48 kHz, AC3, 3/2 (L,C,R,l,r) + LFE ch, ~384.00 kbps avg |UATEAM|
Аудио#4:Английский: 48 kHz, AC3, 3/2 (L,C,R,l,r) + LFE ch, ~384.00 kbps avg |Оригинал|
Украинская дорожка есть не во всех сериях!

Релиз:









Season 3, Episodes 1-4
Episode 1: Olivia / Оливия
Episode 2: The Box / Шкатулка
Episode 3: The Plateau / Плато
Episode 4: Do Shapeshifters Dream of Electric Sheep? / Снятся ли оборотням электроовцы?
Episode 5: Amber 31422 / Янтарь 31422
Episode 6: 6955 kHz / 6955 кГц
Episode 7: The Abducted / Похищенные


• В титрах различных серий «Грани» можно увидеть скрытые в кадрах символы, так называемые «глифы». В символахиспользуются «желтые точки», символизируя вместе особый Глифический алфавит. В конце каждой серии можно по буквам составить ключевое слово.






General
Complete name: C:\Users\Антон\Desktop\Мои Торренты\За гранью\fringe_seaon_3_[tfile.ru]\Fringe_S03_E01_[tfile.ru].mkv
Format: Matroska
File size: 1.62 GiB
Duration: 43mn 49s
Overall bit rate: 5 276 Kbps
Movie name: Fringe [Season 3] (2010) - Release for HDCLUB
Encoded date: UTC 2010-09-28 17:19:39
Writing application: mkvmerge v3.4.0 ('Rapunzel') built on May 15 2010 09:38:20
Writing library: libebml v0.8.0 + libmatroska v0.9.0

Video
ID: 1
Format: AVC
Format/Info: Advanced Video Codec
Format profile: High@L3.1
Format settings, CABAC: No
Format settings, ReFrames: 2 frames
Muxing mode: Container profile=Unknown@3.1
Codec ID: V_MPEG4/ISO/AVC
Duration: 43mn 49s
Bit rate: 3 955 Kbps
Width: 1 280 pixels
Height: 720 pixels
Display aspect ratio: 16:9
Frame rate: 23.976 fps
Color space: YUV
Chroma subsampling: 4:2:0
Bit depth: 8 bits
Scan type: Progressive
Bits/(Pixel*Frame): 0.179
Stream size: 1.21 GiB (75%)
Title: Season 3, Episode 1: Olivia / Оливия - Release for HDCLUB
Language: English
Color primaries: BT.709-5, BT.1361, IEC 61966-2-4, SMPTE RP177
Transfer characteristics: BT.709-5, BT.1361
Matrix coefficients: BT.709-5, BT.1361, IEC 61966-2-4 709, SMPTE RP177

Audio #1
ID: 2
Format: AC-3
Format/Info: Audio Coding 3
Mode extension: CM (complete main)
Codec ID: A_AC3
Duration: 43mn 49s
Bit rate mode: Constant
Bit rate: 448 Kbps
Channel(s): 6 channels
Channel positions: Front: L C R, Side: L R, LFE
Sampling rate: 48.0 KHz
Bit depth: 16 bits
Stream size: 140 MiB (8%)
Language: Russian

Audio #2
ID: 3
Format: AC-3
Format/Info: Audio Coding 3
Mode extension: CM (complete main)
Codec ID: A_AC3
Duration: 43mn 49s
Bit rate mode: Constant
Bit rate: 384 Kbps
Channel(s): 6 channels
Channel positions: Front: L C R, Side: L R, LFE
Sampling rate: 48.0 KHz
Bit depth: 16 bits
Stream size: 120 MiB (7%)
Language: Ukrainian

Audio #3
ID: 4
Format: AC-3
Format/Info: Audio Coding 3
Mode extension: CM (complete main)
Codec ID: A_AC3
Duration: 43mn 49s
Bit rate mode: Constant
Bit rate: 384 Kbps
Channel(s): 6 channels
Channel positions: Front: L C R, Side: L R, LFE
Sampling rate: 48.0 KHz
Bit depth: 16 bits
Stream size: 120 MiB (7%)
Language: English

Text
ID: 5
Format: UTF-8
Codec ID: S_TEXT/UTF8
Codec ID/Info: UTF-8 Plain Text
Language: English


Поделиться:




реклама партнёра


Вернуться к началу
 Профиль Отправить личное сообщение  
 
   Похожие торренты   Автор   Торрент   Размер 
В этой теме нет новых непрочитанных сообщений. Почти человек / Almost Human (Брэд Андерсон, Майкл Оффер, Ларри Тенг) (сезон 1, серия 1-13 из 13) [2013-2014, фантастика, боевик, драма , WEB-DLRip-AVC 1080p] [DD5.1] [MVO] [AlexFilm]

Nikolai.Baranov

9 | 6

23.33 ГБ

В этой теме нет новых непрочитанных сообщений. Десница божья / Hand of God [01x10 из 10] (Марк Форстер, Брэд Андерсон, Сара Пиа Андерсон) [2015, Драма, WEBRip 720p | IdeaFilm]

Dracon

19 | 27

16.87 ГБ

В этой теме нет новых непрочитанных сообщений. Десница Бога / Hand of God [S01] (Марк Форстер, Брэд Андерсон, Сара Пиа Андерсон) [драма, криминал, 2014-2015] WEBRip 720p [BaibaKo]

Dracon

231 | 238

14.13 ГБ

В этой теме нет новых непрочитанных сообщений. Зверинец  / Zoo [Season 1, Episodes 1-13 of 13] (Стивен А. Эделсон, Брэд Андерсон, Майкл Кэтлман) [Триллер, драма, экранизация, 2015] WEB-DL 720p [NewStudio]

Dracon

54 | 25

17.97 ГБ

В этой теме нет новых непрочитанных сообщений. Зверинец  / Zoo [Season 1, Episodes 1-9 of 13] (Стивен А. Эделсон, Брэд Андерсон, Майкл Кэтлман) [Триллер, драма, экранизация, 2015] WEB-DL 720p [BaibaKo]

Dracon

0 | 0

12.57 ГБ

В этой теме нет новых непрочитанных сообщений. Спираль / Helix (сезон 1, серия 1-13 из 13) (Дуан Кларк, Дэвид Слэйд, Брэд Тернер) [2014, , фантастика, триллер , WEB-DLRip-AVC 1080p] [DD5.1] [MVO] [NewStudio]

Nikolai.Baranov

14 | 15

22.93 ГБ

В этой теме нет новых непрочитанных сообщений. Спираль / Helix (сезон 1, серия 1-11 из 13) (Дуан Кларк, Дэвид Слэйд, Брэд Тернер) [2014, , фантастика, триллер , WEB-DLRip-AVC 1080p] [DD5.1] [MVO] [AlexFilm]

Nikolai.Baranov

0 | 3

19.47 ГБ


Начать новую тему Ответить на тему  [ 1 сообщение ] 




Для Мосгорсуда, Роскомнадзора и рекламодателей:: mosgorsud-torrent[собачка]yandex.ru