Торрент файл
скачать торрент магнет ссылка Добавлен: 14 мар 2012, 13:44
Размер: 3.04 ГБ
Сидеров: 2
Личеров: 8
Автор

СообщениеДобавлено: 14 мар 2012, 13:44 

Не в сети
Аватара пользователя
Дата регистрации:
19 окт 2011, 11:19
Возраст: 24
Спасибо: 498 / 1
Сообщения: 8830
Доктор Кто, 6 сезон 1-2 серии / Doctor Who


1. Невозможный астронавт / The Impossible Astronaut
2. День Луны / Day of the Moon

Перевод: Профессиональный (многоголосый, закадровый), Субтитры: отсутствуют
Формат: WEB-DL, MKV, H.264/AVC, AC3
Страна: Великобритания
Режиссер: Тоби Хэйнс
Жанр: Фантастика, приключения
Всего серий: 13
Продолжительность: 2 х 00:47
Год выпуска: 2011

В ролях: Мэтт Смит / Matt Smith (The Eleventh Doctor), Карен Гиллан / Karen Gillan (Amy Pond), Артур Дарвилл / Arthur Darvill (Rory Williams), Алекс Кингстон / Alex Kingston (River Song)

Описание: Доктор Кто (Doctor Who) — британский научно-фантастический телесериал компании Би-Би-Си о загадочном путешественнике во времени, известном как «Доктор», который вместе со своими спутниками исследует время и пространство, борясь со вселенским злом.
У него на вооружении - машина времени TARDIS - Time And Relative Dimension In Space. Снаружи это всего лишь британская полицейская будка 1950-х, а внутри гораздо более просторный пространственно-временной корабль.

В новом сезоне... Доктор, Эми и Рори возвращаются, чтобы столкнуться с монстрами, загадками и приключениями во всём времени и пространстве. Они окажутся в Америке 60х годов и будут противостоять вторжению в забытый мир. Затем они попадут на борт пиратского корабля и раскроют тайну Сирен. В пузырьковой вселенной на самом краю света, Доктор повстречает старого друга с новым лицом, а в монастыре на далёком острове в недалёком будущем производственная авария примет ужасную человеческую форму. В конце их поджидает битва у Берега Демонов и самый тяжёлый час для Доктора. Поможет ли правда о Ривер Сонг спасти душу Повелителя Времени?Можно быть уверенным лишь в двух вещах. Тишина наступит. И умрёт хороший человек...


Рейтинг на:
[/field]

Видео: 960x712 (16:9), MPEG4/ISO/AVC ( Main@L3.1 ), 25 fps, 4039 Kbps, 0.234 bit/pixel
Аудио RUS: 48.0 kHz, AC3 Dolby Digital, 6 (L,C,R,l,r) + LFE ch, ~384.00 kbps avg
Аудио ENG: 48.0 kHz, AC3 Dolby Digital, 6 (L,C,R,l,r) + LFE ch, ~384.00 kbps avg

Доп. информация:

Релиз:


Над релизом работали:
Перевод: Татьяна Saavick
Озвучка: Светлана Доманова, Юрий Линкевич, Anna_Smile, Алексей Кузнецов
Сведение: Татьяна Оболевич

1 СЕРИЯ
Общее
Уникальный идентификатор: 183115828719910355953184797821494559821 (0x89C2D36677F2BEED829560287A97044D)
Полное имя: C:\Documents and Settings\Admin\Рабочий стол\720р\Doctor_Who_S06E01-02_[tfile.ru]\Doctor_Who_S06E02_[tfile.ru].mkv
Формат: Matroska
Размер файла: 1,58 Гбайт
Продолжительность: 46 м.
Общий поток: 4905 Кбит/сек
Название фильма: BaibaKo.tv presents - Доктор Кто 6х02 День Луны
Дата кодирования: UTC 2011-05-02 22:09:08
Программа кодирования: mkvmerge v3.4.0 ('Rapunzel') сборка от May 15 2010 09:38:20
Библиотека кодирования: libebml v0.8.0 + libmatroska v0.9.0

Видео
Идентификатор: 1
Формат: AVC
Формат/Информация: Advanced Video Codec
Профиль формата: Main@L3.1
Параметр CABAC формата: Нет
Параметр ReFrames формата: 2 кадра
Параметры GOP формата: M=2, N=25
Идентификатор кодека: V_MPEG4/ISO/AVC
Продолжительность: 46 м.
Битрейт: 4039 Кбит/сек
Ширина: 960 пикс.
Высота: 720 пикс.
Соотношение сторон: 16:9
Частота кадров: 25,000 кадр/сек
Цветовое пространство: YUV
Подвыборка цветности: 4:2:0
Битовая глубина: 8 бит
Тип развёртки: Прогрессивная
Бит/(Пиксели*Кадры): 0.234
Размер потока: 1,30 Гбайт (82%)
Язык: English
Основные цвета: BT.709-5, BT.1361, IEC 61966-2-4, SMPTE RP177
Характеристики трансфера: BT.709-5, BT.1361
Коэффициенты матрицы: BT.709-5, BT.1361, IEC 61966-2-4 709, SMPTE RP177

Аудио #1
Идентификатор: 2
Формат: AC-3
Формат/Информация: Audio Coding 3
Расширение режима: CM (complete main)
Идентификатор кодека: A_AC3
Продолжительность: 46 м.
Вид битрейта: Постоянный
Битрейт: 384 Кбит/сек
Каналы: 6 каналов
Расположение каналов: Front: L C R, Side: L R, LFE
Частота: 48,0 КГц
Битовая глубина: 16 бит
Метод сжатия: С потерями
Размер потока: 127 Мбайт (8%)
Заголовок: Rus BaibaKo.tv DD5.1
Язык: Russian

Аудио #2
Идентификатор: 3
Формат: AC-3
Формат/Информация: Audio Coding 3
Расширение режима: CM (complete main)
Идентификатор кодека: A_AC3
Продолжительность: 46 м.
Вид битрейта: Постоянный
Битрейт: 384 Кбит/сек
Каналы: 6 каналов
Расположение каналов: Front: L C R, Side: L R, LFE
Частота: 48,0 КГц
Битовая глубина: 16 бит
Метод сжатия: С потерями
Размер потока: 127 Мбайт (8%)
Заголовок: Eng DD5.1
Язык: English)

2 СЕРИЯ
Общее
Уникальный идентификатор: 248855702236266305124686021391044821356 (0xBB37DD6891749F0A846A79E6049BC16C)
Полное имя: C:\Documents and Settings\Admin\Рабочий стол\720р\Doctor_Who_S06E01-02_[tfile.ru]\Doctor_Who_S06E01_[tfile.ru].mkv
Формат: Matroska
Размер файла: 1,46 Гбайт
Продолжительность: 43 м.
Общий поток: 4782 Кбит/сек
Название фильма: BaibaKo.tv presents - BaibaKo.tv presents - Доктор Кто 6х01 Невозможный астронавт
Дата кодирования: UTC 2011-04-25 11:49:48
Программа кодирования: mkvmerge v3.4.0 ('Rapunzel') сборка от May 15 2010 09:38:20
Библиотека кодирования: libebml v0.8.0 + libmatroska v0.9.0

Видео
Идентификатор: 1
Формат: AVC
Формат/Информация: Advanced Video Codec
Профиль формата: Main@L3.1
Параметр CABAC формата: Нет
Параметр ReFrames формата: 2 кадра
Параметры GOP формата: M=2, N=24
Идентификатор кодека: V_MPEG4/ISO/AVC
Продолжительность: 43 м.
Битрейт: 3918 Кбит/сек
Ширина: 960 пикс.
Высота: 712 пикс.
Соотношение сторон: 16:9
Частота кадров: 25,000 кадр/сек
Цветовое пространство: YUV
Подвыборка цветности: 4:2:0
Битовая глубина: 8 бит
Тип развёртки: Прогрессивная
Бит/(Пиксели*Кадры): 0.229
Размер потока: 1,19 Гбайт (82%)
Язык: English
Основные цвета: BT.709-5, BT.1361, IEC 61966-2-4, SMPTE RP177
Характеристики трансфера: BT.709-5, BT.1361
Коэффициенты матрицы: BT.709-5, BT.1361, IEC 61966-2-4 709, SMPTE RP177

Аудио #1
Идентификатор: 2
Формат: AC-3
Формат/Информация: Audio Coding 3
Расширение режима: CM (complete main)
Идентификатор кодека: A_AC3
Продолжительность: 43 м.
Вид битрейта: Постоянный
Битрейт: 384 Кбит/сек
Каналы: 6 каналов
Расположение каналов: Front: L C R, Side: L R, LFE
Частота: 48,0 КГц
Битовая глубина: 16 бит
Метод сжатия: С потерями
Размер потока: 120 Мбайт (8%)
Заголовок: Rus BaibaKo.tv DD5.1
Язык: Russian

Аудио #2
Идентификатор: 3
Формат: AC-3
Формат/Информация: Audio Coding 3
Расширение режима: CM (complete main)
Идентификатор кодека: A_AC3
Продолжительность: 43 м.
Вид битрейта: Постоянный
Битрейт: 384 Кбит/сек
Каналы: 6 каналов
Расположение каналов: Front: L C R, Side: L R, LFE
Частота: 48,0 КГц
Битовая глубина: 16 бит
Метод сжатия: С потерями
Размер потока: 120 Мбайт (8%)
Заголовок: Eng DD5.1
Язык: English









6 сезон:













Поделиться:




реклама партнёра


Вернуться к началу
 Профиль Отправить личное сообщение  
 
   Похожие торренты   Автор   Торрент   Размер 
В этой теме нет новых непрочитанных сообщений. Мушкетеры / The Musketeers (Сезон 1-2, Серии 1-12 из 20) (Тоби Хэйнс, Фэррен Блэкберн, Ричард Кларк) [2014-2015 г., Драма, приключения , WEB-DLRip , HDTVRip-AVC1080 , 720p] [DD5.1] [MVO] [NewStudio]

Враг Нароода

49 | 36

27.17 ГБ

В этой теме нет новых непрочитанных сообщений. Мушкетеры / The Musketeers (Сезон 1-2, Серии 1-17 из 20) (Тоби Хэйнс, Фэррен Блэкберн, Ричард Кларк) [2014-2015 г., Драма, приключения , WEB-DLRip , HDTVRip-AVC1080 , 720p] [DD5.1] [MVO] [NewStudio]

Враг Нароода

0 | 4

38.1 ГБ

В этой теме нет новых непрочитанных сообщений. Доктор Кто / Doctor Who [9 сезон: 1-12 серии из 12 + пролог] (Стивен Моффат) [2015, фантастика, комедия, WEB-DL 1080p | BaibaKo]

Nickolas3435

1 | 1

23.73 ГБ

В этой теме нет новых непрочитанных сообщений. Доктор Кто / Doctor Who [9 сезон: 1-12 серии из 12 + 2 приквела] (Стивен Моффат) [2015, фантастика, комедия, WEB-DL 720p | BaibaKo]

Dracon

0 | 3

19.3 ГБ

В этой теме нет новых непрочитанных сообщений. Мушкетеры / The Musketeers (сезон 1, серия 1-10 из 10) (Тоби Хэйнс, Фэррен Блэкберн, Ричард Кларк) [2014 г., Драма, приключения , WEB-DLRip-AVC 1080p] [DD5.1] [MVO] [NewStudio]

Nikolai.Baranov

6 | 5

22.6 ГБ

В этой теме нет новых непрочитанных сообщений. Доктор Кто, 1-7 сезоны 1-102 серии из 102 / Doctor Who (Грэм Харпер, Крис Чибнелл) [2005-2013, фантастика, приключения, комедия, семейный, DVDRip/HDTVRip/WEB-DLRip, [СТС, BaibaKo]]

Dracon

74 | 256

52.38 ГБ

В этой теме нет новых непрочитанных сообщений. Доктор Кто / Doctor Who [S09] (Бен Уитли) [2015, Фантастика, приключения, HDTVRip | IdeaFilm]

Dracon

44 | 43

5.97 ГБ


Начать новую тему Ответить на тему  [ 1 сообщение ] 




Для Мосгорсуда, Роскомнадзора и рекламодателей:: mosgorsud-torrent[собачка]yandex.ru