Торрент файл
скачать торрент магнет ссылка Добавлен: 14 мар 2012, 13:03
Размер: 1.95 ГБ
Сидеров: 0
Личеров: 3
Автор

СообщениеДобавлено: 14 мар 2012, 13:03 

Не в сети
Аватара пользователя
Дата регистрации:
19 окт 2011, 11:19
Возраст: 24
Спасибо: 519 / 1
Сообщения: 8830
Кости, 7 сезон 1-5 серия / Bones




Перевод: Любительский (многоголосый, закадровый) DreamRecords, субтитры: отсутствуют
Формат: HDRip-AVC, MKV, AVC, MP3


Страна: США
Режиссер: Стивен ДеПол, Йен Тойнтон, Аллен Крокер
Жанр: Драма, Детектив
Всего серий: 23
Продолжительность: 5 x 00:43
Год выпуска: 2011


В ролях: Эмили Дешанель, Дэвид Бореаназ, Михаэлла Конлин, Ти-Джей Тайн, Тамара Тейлор, Эрик Миллеган, Джон Фрэнсис Дейли, Джонатан Адамс, Патриция Белчер, Дэвид Гринман и др.

Описание: Доктор Темперанс Бреннан, блестящий, но одинокий антрополог получает то, чего она меньше всего желала — напарника. Бюро посылает ей амбициозного агента ФБР Сили Бута, чтобы помочь в расследовании нераскрытых дел путем изучения и идентификации костей давно пропавших людей. Но давно умершие жертвы не единственное, с чем придется столкнуться Боунс, Буту и их команде, раскрывая преступления они часто сталкиваются с взяточничеством, коррупцией и местной разрозненностью.

Рейтинг:




Видео: 856x480 (1.78:1), 23.976 fps, AVC (x264), High@L4.1, ~1105 kbps avg, 0,112 bit/pixel
Аудио: 48 kHz, MPEG Layer 3, 2 ch, ~192.00 kbps avg


Озвучка:



Релиз: Burd0SS

1 серия















2 серия













1 сезон:





















Общее
Полное имя: C:\***\Bones_S07E01_[tfile.ru].mkv
Формат: Matroska
Версия формата: Version 2
Размер файла: 399 Мбайт
Продолжительность: 42 м.
Общий поток: 1298 Кбит/сек
Дата кодирования: UTC 2011-11-13 08:47:26
Программа кодирования: mkvmerge v4.4.0 ('Die Wiederkehr') сборка от Oct 31 2010 21:52:48
Библиотека кодирования: libebml v1.0.0 + libmatroska v1.0.0

Видео
Идентификатор: 1
Формат: AVC
Формат/Информация: Advanced Video Codec
Профиль формата: High@L4.1
Параметр CABAC формата: Да
Параметр ReFrames формата: 7 кадров
Режим смешивания: Header stripping
Идентификатор кодека: V_MPEG4/ISO/AVC
Продолжительность: 42 м.
Битрейт: 1105 Кбит/сек
Ширина: 856 пикселей
Высота: 480 пикселей
Соотношение сторон: 16:9
Соотношение сторон в оригинале: 16:9
Частота кадров: 23,976 кадра/сек
Цветовое пространство: YUV
Субдискретизация насыщенности: 4:2:0
Битовая глубина: 8 бит
Тип развёртки: Прогрессивная
Бит/(Пиксели*Кадры): 0.112
Размер потока: 332 Мбайт (83%)
Библиотека кодирования: x264 core 116 r2074 2641b9e

Настройки программы: cabac=1 / ref=7 / deblock=1:-1:-1 / analyse=0x3:0x113 / me=hex / subme=7 / psy=1 / psy_rd=1.00:0.10 / mixed_ref=1 / me_range=16 / chroma_me=1 / trellis=2 / 8x8dct=1 / cqm=2 / deadzone=21,11 / fast_pskip=0 / chroma_qp_offset=-3 / threads=3 / sliced_threads=0 / nr=0 / decimate=1 / interlaced=0 / bluray_compat=0 / constrained_intra=0 / bframes=5 / b_pyramid=2 / b_adapt=1 / b_bias=0 / direct=1 / weightb=1 / open_gop=0 / weightp=2 / keyint=250 / keyint_min=23 / scenecut=40 / intra_refresh=0 / rc=2pass / mbtree=0 / bitrate=1105 / ratetol=1.0 / qcomp=0.70 / qpmin=0 / qpmax=62 / qpstep=4 / cplxblur=20.0 / qblur=0.5 / ip_ratio=1.40 / pb_ratio=1.30 / aq=1:0.70

Аудио
Идентификатор: 2
Формат: MPEG Audio
Версия формата: Version 1
Профиль формата: Layer 3
Режим смешивания: Header stripping
Идентификатор кодека: A_MPEG/L3
Идентификатор кодека/Подсказка: MP3
Продолжительность: 42 м.
Вид битрейта: Постоянный
Битрейт: 192 Кбит/сек
Каналы: 2 канала
Частота: 48,0 КГц
Метод сжатия: С потерями
Размер потока: 59,0 Мбайт (15%)
Заголовок: DreamRecords
Язык: Russian


avs [info]: 856x480p 0:0 @ 24000/1001 fps (cfr)
x264 [info]: using cpu capabilities: MMX2 SSE2Slow SlowCTZ
x264 [info]: profile High, level 4.1
x264 [info]: frame I:805Avg QP:17.23size: 36676
x264 [info]: frame P:21852 Avg QP:20.47size: 10559
x264 [info]: frame B:39179 Avg QP:21.74size:2445
x264 [info]: consecutive B-frames:9.7% 21.1% 13.1% 21.4% 27.1%7.6%
x264 [info]: mb II16..4:4.6% 82.3% 13.2%
x264 [info]: mb PI16..4:1.6%7.5%0.6%P16..4: 50.8% 21.4% 12.3%0.0%0.0%skip: 5.8%
x264 [info]: mb BI16..4:0.1%0.2%0.0%B16..8: 39.7%5.4%1.2%direct: 2.3%skip:51.2%L0:38.0% L1:52.3% BI: 9.7%
x264 [info]: 8x8 transform intra:78.4% inter:70.1%
x264 [info]: coded y,uvDC,uvAC intra: 69.5% 74.2% 49.0% inter: 15.2% 21.8% 0.5%
x264 [info]: i16 v,h,dc,p: 36% 18%8% 38%
x264 [info]: i8 v,h,dc,ddl,ddr,vr,hd,vl,hu: 20% 19% 20%5%7%8%7%7%7%
x264 [info]: i4 v,h,dc,ddl,ddr,vr,hd,vl,hu: 24% 20% 13%5%9%8%8%6%5%
x264 [info]: i8c dc,h,v,p: 52% 20% 21%7%
x264 [info]: Weighted P-Frames: Y:4.2% UV:1.9%
x264 [info]: ref P L0: 57.2% 13.8% 15.3%4.6%3.6%2.6%2.4%0.5%0.0%
x264 [info]: ref B L0: 85.1%9.4%3.2%1.3%0.7%0.3%
x264 [info]: ref B L1: 94.6%5.4%
x264 [info]: kb/s:1104.45

encoded 61836 frames, 5.36 fps, 1104.45 kb/s






Внимание! Раздача ведётся путём добавления новых серий; при каждом добавлении создётся новый торрент. Чтобы начать докачку новой серии, пользователям необходимо сделать следующее:

(1) остановить скачивание,
(2) удалить старый торрент у себя из клиента (старые серии удалять не надо),
(3) скачать новый торрент и запустить его у себя в клиенте вместо старого, при этом указать клиенту путь в старую папку куда и должно происходить скачивание новых серий.


Ваш клиент при этом должен произвести хеширование (проверку) старой папки (если не производит сам - помогите ему сделать это), и будет докачивать только те серии которых у вас ещё нет. Старые серии при этом не удаляются, а продолжают раздаваться!
Eсли вы уже удалили старые серии, то предотвратить повторную закачку старых серий можно, отжав галочку в соответствующих местах при запуске нового торрента. По возможности, желательно не удалять старые серии как можно дольше чтобы релизёр не столько продолжал раздавать старые серии, а смог сконцентрироваться на новых.


Поделиться:




реклама партнёра


Вернуться к началу
 Профиль Отправить личное сообщение  
 
   Похожие торренты   Автор   Торрент   Размер 
В этой теме нет новых непрочитанных сообщений. Кости / Bones [S11] (Иэн Тойнтон, Дуайт Х. Литтл, Аллен Крокер) [2015, драма, мелодрама, комедия, криминал, детектив, WEB-DLRip | IdeaFilm]

Dracon

214 | 166

11.89 ГБ

В этой теме нет новых непрочитанных сообщений. Кости / Bones [10x01 из 24] (Иэн Тойнтон, Дуайт Х. Литтл, Аллен Крокер) [2014, драма, мелодрама, комедия, криминал, детектив, WEB-DLRip | BaibaKo]

Nickolas3435

72 | 19

598.5 МБ

В этой теме нет новых непрочитанных сообщений. Тайные связи / Covert Affairs [S01-05] (Стефен Т. Кэй, Феликс Энрикез Алькала, Аллен Крокер) [боевик, триллер, драма, криминал, детектив, 2010-2014] WEB-DLRip, Mvo [Fox Life]

Dracon

95 | 74

36.79 ГБ

В этой теме нет новых непрочитанных сообщений. Кости / Bones / 10 сезон 1-22 серии из 22 [мелодрама, комедия, криминал, 2014-2015] WEB-DLRip, Mvo [BaibaKo]

salma3

824 | 405

12.75 ГБ

В этой теме нет новых непрочитанных сообщений. Особо Тяжкие Преступления / Major Crimes / 2 сезон 1-19 серии из 19 [драма, криминал, детектив, 2013] HDTVRip, Dvo [DreamRecords]

salma3

20 | 13

8.37 ГБ

В этой теме нет новых непрочитанных сообщений. Кости [Серия 01-22 из 24] [Детектив, криминал, 2016] SATRip

Dracon

1 | 2

13.72 ГБ

В этой теме нет новых непрочитанных сообщений. Расследования Мердока / Murdoch Mysteries [08x01-07] (Харви Кросслэнд, Лори Линд, Дон МакКатчен) [2014, драма, криминал, детектив, WEB-DLRip | DreamRecords]

Nickolas3435

101 | 21

3.22 ГБ


Начать новую тему Ответить на тему  [ 1 сообщение ] 




Для Мосгорсуда, Роскомнадзора и рекламодателей:: mosgorsud-torrent[собачка]yandex.ru