Торрент файл
скачать торрент магнет ссылка Добавлен: 13 мар 2012, 15:46
Размер: 71.82 ГБ
Сидеров: 43
Личеров: 22
Статус: (PriZraK)
Автор

СообщениеДобавлено: 13 мар 2012, 15:46 

Не в сети
Администратор
Дата регистрации:
08 апр 2010, 18:00
Спасибо: 1110 / 220
Сообщения: 17090
Улицы разбитых фонарей 1-6 (менты 1-6) / полные 6 сезонов, 161 серия

Год выпуска: 1998-2004
Жанр: Детектив
Продолжительность: 161 * ~ 00:50:00
Режиссёр: Александр Рогожкин и др.

В ролях: Анастасия Мельникова
Александр Лыков ...Казанцев
Александр Половцев
Юрий Кузнецов ..."Мухомор"
Алексей Нилов ...Ларин
Михаил Трухин
Сергей Селин ...Дукалис
и др.

Описание: Загадочные убийства, похищения, жестокие преступления без свидетелей… Самые запутанные дела расследует команда петербургской милиции - Казанова, Ларин, Дукалис, Волков, Соловец. Даже на самых опасных заданиях менты никогда не теряют чувства юмора. Именно оно помогает им находить самые невероятные выходы из любых ситуаций. С каждым днём их задания становятся всё опаснее, а шутки смешнее.

Доп. информация: Популярный телесериал про работу уголовного розыска по мотивам детективов известного петербургского беллетриста (и сыщика с десятилетним стажем) Андрея Кивинова. Сериал рассказывает о рабочих буднях 85-го отделения петербургской милиции. Главные герои, рядовые «сыскари» Казанова, Ларин, Дукалис и Волков в корне отличаются от рыцарей без страха и упрека советских времен, которых воплощали на экране Збруев, Соломин, Кикабидзе, Мартынюк и другие.

1 сезон

Качество: DVDRip
Формат: AVI
Видео кодек: DivX
Аудио кодек: MP3
Видео: 720x432 (1.67:1), 25 fps, DivX Codec 5.x or 6.x ~780 kbps avg, 0.10 bit/pixel
Аудио: 48 kHz, MPEG Layer 3, 2 ch, ~128.00 kbps avg
Сэмпл.
MediaInfo
Полное имя : D:\Programms\uTorrent 1.75\Complete\Menti\Menti-1\Серия 01.avi
Формат : AVI
Формат/Информация : Audio Video Interleave
Размер файла : 390 Мбайт
Продолжительность : 59 м.
Общий поток : 916 Кбит/сек
Программа кодирования : VirtualDubMod 1.5.4.1 (build 2178/release)
Библиотека кодирования : VirtualDubMod build 2178/release
Видео
Идентификатор : 0
Формат : MPEG-4 Visual
Параметр BVOP формата : 1
Параметр QPel формата : Нет
Параметр GMC формата : Без точки перехода
Параметр матрицы формата : Default (H.263)
Режим смешивания : Сжатый битовый поток
Идентификатор кодека : DX50
Идентификатор кодека/Подсказка : DivX 5
Продолжительность : 59 м.
Битрейт : 780 Кбит/сек
Ширина : 720 пикселей
Высота : 432 пикселя
Соотношение сторон : 1,667
Частота кадров : 25,000 кадров/сек
Цветовое пространство : YUV
Субдискретизация насыщенности : 4:2:0
Битовая глубина : 8 бит
Тип развёртки : Прогрессивная
Метод сжатия : С потерями
Бит/(Пиксели*Кадры) : 0.100
Размер потока : 332 Мбайт (85%)
Библиотека кодирования : DivX 6.1.1 (UTC 2006-02-01)
Аудио
Идентификатор : 1
Формат : MPEG Audio
Версия формата : Version 1
Профиль формата : Layer 3
Режим : Joint stereo
Расширение режима : MS Stereo
Идентификатор кодека : 55
Идентификатор кодека/Подсказка : MP3
Продолжительность : 59 м.
Вид битрейта : Постоянный
Битрейт : 128 Кбит/сек
Каналы : 2 канала
Частота : 48,0 КГц
Метод сжатия : С потерями
Размер потока : 54,5 Мбайт (14%)
Выравнивание : Соединение по промежуткам
Продолжительность промежутка : 80 мс. (2,00 видеокадра)
Время предзагрузки промежутка : 504 мс.
Язык : Russian
Скриншоты


Список серий
1. «Кошмар на улице С.» (1997) — по повести Андрея Кивинова «Кошмар на улице Стачек»
2. «Попутчики» (1997) — по одноимённой повести Андрея Кивинова
3. «Инферно» (1997) — по одноимённой повести Андрея Кивинова
4. «Целую, Ларин» (1997) — по одноимённой повести Андрея Кивинова
5. «Сексот Цыплаков» (1997) — по повести Андрея Кивинова «Полное блюдце секретов»
6. «Темное пиво, или урок английского» (1997) — по повести Андрея Кивинова «Полное блюдце секретов»
7. «Третий слева» (1998) — по повести Андрея Кивинова «Полное блюдце секретов»
8. «Блюз осеннего вечера» (1998) — по одноимённой повести Андрея Кивинова
9. «Испорченный телефон» (1998)
10. «Страховочный вариант» (1998) — по одноимённой повести Андрея Кивинова
11. «Отсутствие доказательств» (1998) — по одноимённой повести Андрея Кивинова
12. «Напиток для настоящих мужчин» (1998)
13. «Операция „Чистые руки“», 1-я часть (1998) — по повести Андрея Кивинова «Дублёр»
14. «Операция „Чистые руки“», 2-я часть (1998) — по повести Андрея Кивинова «Дублёр»
15. «Высокое напряжение» (1998) — по одноимённой повести Андрея Кивинова
16. «Вторжение в частную жизнь» (1998) — по одноимённой повести Андрея Кивинова
17. «Танцы на льду» (1998) — по одноимённой повести Андрея Кивинова
18. «Петербургский презент» (1998) — по одноимённой повести Андрея Кивинова
19. «Инстинкт мотылька» (1998)
20. «Дело репортёра» (1998)
21. «Подставка» (1998)
22. «Ля-ля-фа» (1998) — по одноимённой повести Андрея Кивинова
23. «Охота на крыс» (1998) — по одноимённой повести Андрея Кивинова
24. «Чарующие сны» (1998) — по одноимённой повести Андрея Кивинова
25. «Моль бледная» (1998)
26. «Обнесённые Ветром» (1998) — по одноименной повести Андрея Кивинова
27. «Многая лета» (1998)
28. «Лекарство от скуки» (1998)
29. «Погоня за призраком» (1998) — по сценарию Андрея Кивинова
30. «Куколка» (1998) — по одноимённой повести Андрея Кивинова
31. «Женское счастье» (1998)
32. «Дело № 1999», 1-я часть (1998)
33. «Дело № 1999», 2-я часть (1998)
2 сезон
Качество: DVDRip
Формат: AVI
Видео кодек: XviD
Аудио кодек: MP3
Видео: 640x384 (1.67:1), 25 fps, XviD build 47 ~1265 kbps avg, 0.21 bit/pixel
Аудио: 48 kHz, MPEG Layer 3, 2 ch, ~128.00 kbps avg
Сэмпл.
MediaInfo
Полное имя : D:\Programms\uTorrent 1.75\Complete\Menti\Menti-2\Серия 01.avi
Формат : AVI
Формат/Информация : Audio Video Interleave
Размер файла : 500 Мбайт
Продолжительность : 48 м.
Общий поток : 1446 Кбит/сек
Программа кодирования : VirtualDubMod 1.5.4.1 (build 2178/release)
Библиотека кодирования : VirtualDubMod build 2178/release
Видео
Идентификатор : 0
Формат : MPEG-4 Visual
Профиль формата : Advanced Simple@L5
Параметр BVOP формата : 1
Параметр QPel формата : Нет
Параметр GMC формата : Без точки перехода
Параметр матрицы формата : Выборочная
Идентификатор кодека : XVID
Идентификатор кодека/Подсказка : XviD
Продолжительность : 48 м.
Битрейт : 1311 Кбит/сек
Ширина : 640 пикселей
Высота : 384 пикселя
Соотношение сторон : 1,667
Частота кадров : 25,000 кадров/сек
Цветовое пространство : YUV
Субдискретизация насыщенности : 4:2:0
Битовая глубина : 8 бит
Тип развёртки : Прогрессивная
Метод сжатия : С потерями
Бит/(Пиксели*Кадры) : 0.213
Размер потока : 453 Мбайт (91%)
Библиотека кодирования : XviD 1.2.0.dev47 (UTC 2006-11-01)
Аудио
Идентификатор : 1
Формат : MPEG Audio
Версия формата : Version 1
Профиль формата : Layer 3
Режим : Joint stereo
Расширение режима : MS Stereo
Идентификатор кодека : 55
Идентификатор кодека/Подсказка : MP3
Продолжительность : 48 м.
Вид битрейта : Постоянный
Битрейт : 128 Кбит/сек
Каналы : 2 канала
Частота : 48,0 КГц
Метод сжатия : С потерями
Размер потока : 44,2 Мбайт (9%)
Выравнивание : Соединение по промежуткам
Продолжительность промежутка : 80 мс. (2,00 видеокадра)
Время предзагрузки промежутка : 504 мс.
Библиотека кодирования : LAME3.97
Настройки программы : -m j -V 4 -q 2 -lowpass 17 -b 128
Скриншоты


Список серий
1. «Аварийная защита» (1998) — по повести Андрея Кивинова «Мент обречённый»
2. «Ищу работу с риском» (1998) — по повести Андрея Кивинова «Сделано из отходов»
3. «Контрабас» (1999)
4. «Визит к доктору» (1999)
5. «Трубка фирмы Данхилл» (1999)
6. «Новое слово в живописи» (1999)
7. «Королева красоты» (1999)
8. «Дама с собакой» (1999)
9. «Шла Саша по шоссе» (1999)
10. «Дело чести» (1999)
11. «Любовный напиток» (1999)
12. «Сердечная недостаточность» (1999)
13. «Смерть на пляже» (1999)
14. «Всё это рок-н-ролл» (1999)
15. «Отпуск для героев», 1-я часть (1999)
16. «Отпуск для героев», 2-я часть (1999)
17. «Школа паука» (1999)
18. «Ловушка для „Мамонта“» (1999)
19. «Огонь на опережение» (1999)
20. «Раритет» (1999)
21. «Честное пионерское» (1999)
22. «Рождество» (1999)
23. «Собака Сталина» (1999)
24. «Заказчик» (1999)
3 сезон
Качество: DVDRip
Формат: AVI
Видео кодек: XviD
Аудио кодек: MP3
Видео: 624x368 (1.70:1), 25 fps, XviD MPEG-4 ~1250 kbps avg, 0.22 bit/pixel
Аудио: 48 kHz, MPEG Layer 3, 2 ch, ~128.00 kbps avg
Сэмпл.
MediaInfo
Полное имя : D:\Programms\uTorrent 1.75\Complete\Menti\Menti-3\Серия 01.avi
Формат : AVI
Формат/Информация : Audio Video Interleave
Размер файла : 490 Мбайт
Продолжительность : 50 м.
Общий поток : 1345 Кбит/сек
Программа кодирования : FairUse Wizard - http://fairusewizard.com
Библиотека кодирования : The best and REALLY easy backup tool
Видео
Идентификатор : 0
Формат : MPEG-4 Visual
Профиль формата : Advanced Simple@L5
Параметр BVOP формата : 1
Параметр QPel формата : Нет
Параметр GMC формата : Без точки перехода
Параметр матрицы формата : Default (MPEG)
Режим смешивания : Сжатый битовый поток
Идентификатор кодека : XVID
Идентификатор кодека/Подсказка : XviD
Продолжительность : 50 м.
Битрейт : 1207 Кбит/сек
Ширина : 624 пикселя
Высота : 368 пикселей
Соотношение сторон : 1,696
Частота кадров : 25,000 кадров/сек
Цветовое пространство : YUV
Субдискретизация насыщенности : 4:2:0
Битовая глубина : 8 бит
Тип развёртки : Прогрессивная
Метод сжатия : С потерями
Бит/(Пиксели*Кадры) : 0.210
Размер потока : 440 Мбайт (90%)
Библиотека кодирования : XviD 1.2.0.dev47 (UTC 2006-11-01)
Аудио
Идентификатор : 1
Формат : MPEG Audio
Версия формата : Version 1
Профиль формата : Layer 3
Режим : Joint stereo
Расширение режима : MS Stereo
Идентификатор кодека : 55
Идентификатор кодека/Подсказка : MP3
Продолжительность : 50 м.
Вид битрейта : Постоянный
Битрейт : 128 Кбит/сек
Каналы : 2 канала
Частота : 48,0 КГц
Метод сжатия : С потерями
Размер потока : 46,6 Мбайт (10%)
Выравнивание : Соединение по промежуткам
Продолжительность промежутка : 40 мс. (1,00 видеокадр)
Время предзагрузки промежутка : 504 мс.
Библиотека кодирования : LAME3.97b
Настройки программы : -m j -V 4 -q 2 -lowpass 17 -b 128
Скриншоты


Список серий
1. «Врачебная тайна» (2000)
2. «Человек со шрамом» (2000)
3. «Дурь» (2000)
4. «Макароны по-скотски» (2000)
5. «Труп из зоопарка» (2000)
6. «Добрая память» (2000)
7. «Он один из нас» (2000)
8. «Сорок лет до... возмездия?!» (2000)
9. «Джокер» (2000)
10. «Необоснованное применение» (2000)
11. «Прощай, обезьяна, или Призрак опера», 1-я часть (2000)
12. «Прощай, обезьяна, или Призрак опера», 2-я часть (2000)
13. «Убийство под музыку» (2001)
14. «Новые веяния» (2001)
15. «Чёрная метка» (2001)
16. «Домовой» (2001)
17. «Шалом, менты!», 1-я часть (2001)
18. «Шалом, менты!», 2-я часть (2001)
19. «Не пожелаю зла» (2001)
20. «Снежный барс» (2001)
21. «Звёздная болезнь» (2001)
22. «Эхо блокады» (2001)
23. «Исчезновение» (2001)
24. «Парень из нашего города», 1-я часть (2001)
25. «Парень из нашего города», 2-я часть (2001)
26. «Кошки-мышки» (2001)
4 сезон
Качество: DVDRip
Формат: AVI
Видео кодек: XviD
Аудио кодек: MP3
Видео: 624x368 (1.70:1), 25 fps, XviD MPEG-4 ~1243 kbps avg, 0.22 bit/pixel
Аудио: 48 kHz, MPEG Layer 3, 2 ch, ~128.00 kbps avg
Сэмпл.
MediaInfo
Полное имя : D:\Programms\uTorrent 1.75\Complete\Menti\Menti-4\Серия 01.avi
Формат : AVI
Формат/Информация : Audio Video Interleave
Размер файла : 499 Мбайт
Продолжительность : 50 м.
Общий поток : 1387 Кбит/сек
Программа кодирования : FairUse Wizard - http://fairusewizard.com
Библиотека кодирования : The best and REALLY easy backup tool
Видео
Идентификатор : 0
Формат : MPEG-4 Visual
Профиль формата : Advanced Simple@L5
Параметр BVOP формата : 1
Параметр QPel формата : Нет
Параметр GMC формата : Без точки перехода
Параметр матрицы формата : Default (MPEG)
Режим смешивания : Сжатый битовый поток
Идентификатор кодека : XVID
Идентификатор кодека/Подсказка : XviD
Продолжительность : 50 м.
Битрейт : 1249 Кбит/сек
Ширина : 624 пикселя
Высота : 368 пикселей
Соотношение сторон : 1,696
Частота кадров : 25,000 кадров/сек
Цветовое пространство : YUV
Субдискретизация насыщенности : 4:2:0
Битовая глубина : 8 бит
Тип развёртки : Прогрессивная
Метод сжатия : С потерями
Бит/(Пиксели*Кадры) : 0.218
Размер потока : 450 Мбайт (90%)
Библиотека кодирования : XviD 1.2.0.dev47 (UTC 2006-11-01)
Аудио
Идентификатор : 1
Формат : MPEG Audio
Версия формата : Version 1
Профиль формата : Layer 3
Режим : Joint stereo
Расширение режима : MS Stereo
Идентификатор кодека : 55
Идентификатор кодека/Подсказка : MP3
Продолжительность : 50 м.
Вид битрейта : Постоянный
Битрейт : 128 Кбит/сек
Каналы : 2 канала
Частота : 48,0 КГц
Метод сжатия : С потерями
Размер потока : 46,1 Мбайт (9%)
Выравнивание : Соединение по промежуткам
Продолжительность промежутка : 40 мс. (1,00 видеокадр)
Время предзагрузки промежутка : 504 мс.
Библиотека кодирования : LAME3.97b
Настройки программы : -m j -V 4 -q 2 -lowpass 17 -b 128
Скриншоты


Список серий
1. «Знак судьбы» (2001)
2. «У каждого в шкафу свой скелет», 1-я часть (2001)
3. «У каждого в шкафу свой скелет», 2-я часть (2001)
4. «Королева бензоколонок» (2001)
5. «На улице Марата», 1-я часть (2002)
6. «На улице Марата», 2-я часть (2002)
7. «Лобовая атака», 1-я часть (2002)
8. «Лобовая атака», 2-я часть (2002)
9. «Пятая власть» (2002)
10. «Мягкий приговор» (2002)
11. «Долго и счастливо» (2002)
12. «Везёт же людям!» (2002)
13. «Сальдо-бульдо», 1-я часть (2002)
14. «Сальдо-бульдо», 2-я часть (2002)
15. «Настройщик» (2002)
16. «Выстрел в спину» (2002)
17. «Отцы и дети», 1-я часть
18. «Отцы и дети», 2-я часть
19. «Изгой» (2002)
20. «Смертельная болезнь» (2002)
21. «Бабочка», 1 часть (2002)
22. «Бабочка», 2 часть (2002)
23. «Морские волки» (2002)
24. «Стриптиз по-тайски» (2002)
25. «Воронья слободка» (2002)
26. «Тонкости бизнеса» (2002)
5 сезон
Качество: DVDRip
Формат: AVI
Видео кодек: XviD
Аудио кодек: MP3
Видео: 624x368 (1.70:1), 25 fps, XviD MPEG-4 ~1211 kbps avg, 0.21 bit/pixel
Сэмпл.
MediaInfo
Полное имя : D:\Programms\uTorrent 1.75\Complete\Menti\Menti-5\Серия 01.avi
Формат : AVI
Формат/Информация : Audio Video Interleave
Размер файла : 499 Мбайт
Продолжительность : 50 м.
Общий поток : 1392 Кбит/сек
Программа кодирования : FairUse Wizard - http://fairusewizard.com
Библиотека кодирования : The best and REALLY easy backup tool
Видео
Идентификатор : 0
Формат : MPEG-4 Visual
Профиль формата : Advanced Simple@L5
Параметр BVOP формата : 1
Параметр QPel формата : Нет
Параметр GMC формата : Без точки перехода
Параметр матрицы формата : Default (MPEG)
Режим смешивания : Сжатый битовый поток
Идентификатор кодека : XVID
Идентификатор кодека/Подсказка : XviD
Продолжительность : 50 м.
Битрейт : 1254 Кбит/сек
Ширина : 624 пикселя
Высота : 368 пикселей
Соотношение сторон : 1,696
Частота кадров : 25,000 кадров/сек
Цветовое пространство : YUV
Субдискретизация насыщенности : 4:2:0
Битовая глубина : 8 бит
Тип развёртки : Прогрессивная
Метод сжатия : С потерями
Бит/(Пиксели*Кадры) : 0.218
Размер потока : 450 Мбайт (90%)
Библиотека кодирования : XviD 1.2.0.dev47 (UTC 2006-11-01)
Аудио
Идентификатор : 1
Формат : MPEG Audio
Версия формата : Version 1
Профиль формата : Layer 3
Режим : Joint stereo
Расширение режима : MS Stereo
Идентификатор кодека : 55
Идентификатор кодека/Подсказка : MP3
Продолжительность : 50 м.
Вид битрейта : Постоянный
Битрейт : 128 Кбит/сек
Каналы : 2 канала
Частота : 48,0 КГц
Метод сжатия : С потерями
Размер потока : 45,9 Мбайт (9%)
Выравнивание : Соединение по промежуткам
Продолжительность промежутка : 40 мс. (1,00 видеокадр)
Время предзагрузки промежутка : 504 мс.
Библиотека кодирования : LAME3.97b
Настройки программы : -m j -V 4 -q 2 -lowpass 17 -b 128
Скриншоты


Список серий
1. «Дамоклов меч» (2003)
2. «Лохотрон» (2003)
3. «Охота на „крокодила“», 1-я часть (2003)
4. «Охота на „крокодила“», 2-я часть (2003)
5. «Живая рыба» (2003)
6. «Дезинфекция» (2003)
7. «Альбом великого поэта» (2003)
8. «Герой дня» (2003)
9. «Крымский серпантин», 1-я часть (2003)
10. «Крымский серпантин», 2-я часть (2003)
11. «Наследница» (2003)
12. «Собачий промысел» (2003)
13. «Налог на убийство» (2003)
14. «Свежая кровь» (2003)
15. «Белый карлик» (2003)
16. «Марш Мендельсона» (2003)
17. «Бывший», 1-я часть (2003)
18. «Бывший», 2-я часть (2003)
19. «Крайние обстоятельства» (2003)
20. «Под сенью девушек в цвету» (2003)
21. «Последний урок» (2003)
22. «Золотая банка» (2003)
23. «День всех дураков» (2003)
24. «Самородок» (2003)
25. «Удача по прозвищу Пруха» (2003)
26. «Горячие головы» (2004)
6 сезон
Качество: DVDRip
Формат: AVI
Видео кодек: XviD
Аудио кодек: MP3
Видео: 624x368 (1.70:1), 25 fps, XviD MPEG-4 ~1263 kbps avg, 0.22 bit/pixel
Аудио: 48 kHz, MPEG Layer 3, 2 ch, ~128.00 kbps avg
Сэмпл.
MediaInfo
Полное имя : D:\Programms\uTorrent 1.75\Complete\Menti\Menti-6\Серия 01.avi
Формат : AVI
Формат/Информация : Audio Video Interleave
Размер файла : 450 Мбайт
Продолжительность : 44 м.
Общий поток : 1419 Кбит/сек
Программа кодирования : FairUse Wizard - http://fairusewizard.com
Библиотека кодирования : The best and REALLY easy backup tool
Видео
Идентификатор : 0
Формат : MPEG-4 Visual
Профиль формата : Advanced Simple@L5
Параметр BVOP формата : 1
Параметр QPel формата : Нет
Параметр GMC формата : Без точки перехода
Параметр матрицы формата : Default (MPEG)
Режим смешивания : Сжатый битовый поток
Идентификатор кодека : XVID
Идентификатор кодека/Подсказка : XviD
Продолжительность : 44 м.
Битрейт : 1281 Кбит/сек
Ширина : 624 пикселя
Высота : 368 пикселей
Соотношение сторон : 1,696
Частота кадров : 25,000 кадров/сек
Цветовое пространство : YUV
Субдискретизация насыщенности : 4:2:0
Битовая глубина : 8 бит
Тип развёртки : Прогрессивная
Метод сжатия : С потерями
Бит/(Пиксели*Кадры) : 0.223
Размер потока : 406 Мбайт (90%)
Библиотека кодирования : XviD 1.2.0.dev47 (UTC 2006-11-01)
Аудио
Идентификатор : 1
Формат : MPEG Audio
Версия формата : Version 1
Профиль формата : Layer 3
Режим : Joint stereo
Расширение режима : MS Stereo
Идентификатор кодека : 55
Идентификатор кодека/Подсказка : MP3
Продолжительность : 44 м.
Вид битрейта : Постоянный
Битрейт : 128 Кбит/сек
Каналы : 2 канала
Частота : 48,0 КГц
Метод сжатия : С потерями
Размер потока : 40,6 Мбайт (9%)
Выравнивание : Соединение по промежуткам
Продолжительность промежутка : 40 мс. (1,00 видеокадр)
Время предзагрузки промежутка : 504 мс.
Библиотека кодирования : LAME3.97b
Настройки программы : -m j -V 4 -q 2 -lowpass 17 -b 128
Скриншоты


Список серий
1. «Простая формальность» (2004)
2. «Основная версия» (2004)
3. «Его звали не Никита» (2004)
4. «Мёртвых не спросишь» (2004)
5. «Пограничное состояние» (2004)
6. «Убийство по рецепту» (2004)
7. «Гадалка» (2004)
8. «Снайпер» (2004)
9. «Портрет баронессы» (2004)
10. «Августовский щипач» (2004)
11. «Лучший друг человека» (2004)
12. «Одиночный выстрел» (2004)
13. «Всё и сразу» (2004)
14. «Дуплет» (2004)
15. «Чёрный король» (2004)
16. «Падение рубля» (2004)
17. «Разбой на Фонтанке», 1-я часть (2005)
18. «Разбой на Фонтанке», 2-я часть (2005)
19. «Последняя загадка» (2005)
20. «Роковой уик-энд» (2005)
21. «Игры для взрослых» (2005)
22. «Общий наркоз» (2005)
23. «Вторая степень секретности» (2005)
24. «Несчастный случай» (2005)
25. «Конец квартала» (2005)
26. «Мама» (2005)




реклама партнёра


Вернуться к началу
 Профиль Отправить личное сообщение  
 
   Похожие торренты   Автор   Торрент   Размер 
В этой теме нет новых непрочитанных сообщений. Менты 15: Улицы разбитых фонарей [01-24 из 24] (Виктор Шкуратов, Павел Мальков) [Детектив, 2015] SATRip

Dracon

113 | 35

14.93 ГБ

В этой теме нет новых непрочитанных сообщений. Менты 15: Улицы разбитых фонарей [S15] (Виктор Шкуратов, Павел Мальков) [Детектив, 2015] HDTV 720p

Dracon

45 | 20

37.33 ГБ

В этой теме нет новых непрочитанных сообщений. Менты 15: Улицы разбитых фонарей [S15] (Виктор Шкуратов, Павел Мальков) [Детектив, 2015] HDTV 1080i

Dracon

24 | 17

65.41 ГБ

В этой теме нет новых непрочитанных сообщений. Менты 14: Улицы разбитых фонарей [01-36 из 36] (Виктор Шкуратов, Павел Мальков, Жанна Коханова) [Боевик, Криминал, 2014] DVB

Dracon

62 | 38

33.85 ГБ

В этой теме нет новых непрочитанных сообщений. Улицы разбитых фонарей [Cезон 14 серии 1-36 из 36] (Виктор Шкуратов, Павел Мальков, Жанна Коханова) [Боевик, Криминал, 2014] SATRip

Dracon

30 | 16

21.5 ГБ

В этой теме нет новых непрочитанных сообщений. Girls Of Red Light District, The: Alexis Texas / Девочки с Улицы Красных Фонарей: Alexis Texas (Red Light District)[2009 г., All Sex, Compilation, 540p, WEB-DL] (Split Scenes)

salma3

15 | 5

2.76 ГБ

В этой теме нет новых непрочитанных сообщений. Бабий яр (2 фильма из 2) (Александр Чайка) [2004, документальный, исторический, DVDRip]

salma3

0 | 0

633.21 МБ


Начать новую тему Ответить на тему  [ 1 сообщение ] 




Для Мосгорсуда, Роскомнадзора и рекламодателей:: mosgorsud-torrent[собачка]yandex.ru