Торрент файл
скачать торрент магнет ссылка Добавлен: 09 мар 2012, 13:48
Размер: 1.41 ГБ
Сидеров: 0
Личеров: 10
Автор

СообщениеДобавлено: 09 мар 2012, 13:48 

Не в сети
Аватара пользователя
Дата регистрации:
19 окт 2011, 11:19
Возраст: 24
Спасибо: 518 / 1
Сообщения: 8830
Звездные врата: Вселенная, 2 сезон 4 серия / Stargate Universe

«The Only Mission Is Survival»

Перевод: Профессиональный (многоголосый, закадровый), cубтитры: отсутствуют
Формат: WEB-DL, MKV, H.264\AVC, AC3
Страна: США, Канада
Режиссер: Энди Микита, Уильям Варинг, Питер ДеЛуис
Жанр: фантастика, боевик, приключения
Всего серий: 22
Продолжительность: 00:43:43
Год выпуска: 2010

В ролях: Роберт Карлайл, Джастин Луис, Брайан Смит, Элиз Левек, Дэвид Блу, Элейна Каланж, Джамил Уолкер Смит, Питер Келамис, Патрик Гилмор, Джулия Андерсон

Описание: Раскрыта прежде неизвестная цель "Шеврона 9", команда попадает на корабль древних, называемый "Судьба", построенный миллионы лет назад для распространения звездных врат по галактике. Команда, возглавляемая доктором Дэвидом Рашем и полковником Эверетом Янгом, оказывается в ловушке на корабле древних, потому что они не могут изменить запрограммированный древними курс корабля. Неуправляемый корабль несёт их в бесконечные просторы вселенной, их ждут встречи с новым расами, новыми технологиями и новыми врагами.

Рейтинг на:


Видео: 1280x720 (16:9), MPEG4/ISO/AVC, 23,976 fps, 4041 Kbps, 0.183 bit/pixel
Аудио: 48,0 kHz, AC-3, 2 ch, Front: L, R, 384 kbps avg

Доп. информация:
Релиз группы:


Перевод и озвучание: Студия "Кравец"

Официальный сайт: [Звездные врата: Вселенная]

Трейлеры: [Звездные врата: Вселенная]
















Общее
Уникальный идентификатор: 233084166406297317954278714921828449474 (0xAF5A60A81034D9C88CB2444654F77CC2)
Полное имя: D:\Lost Film Video\Звездные врата Вселенная\stargate_universe_s02_e4_lostfilm_[tfile.ru].mkv
Формат: Matroska
Размер файла: 1,41 Гбайт
Продолжительность: 43 м.
Общий поток: 4602 Кбит/сек
Дата кодирования: UTC 2010-10-23 15:31:43
Программа кодирования: mkvmerge v4.2.0 ('No Talking') сборка от Jul 28 2010 18:38:23
Библиотека кодирования: libebml v1.0.0 + libmatroska v1.0.0

Видео
Идентификатор: 1
Формат: AVC
Формат/Информация: Advanced Video Codec
Профиль формата: High@L3.0
Параметр CABAC формата: Нет
Параметр ReFrames формата: 4 кадры
Параметры GOP формата: M=3, N=5
Идентификатор кодека: V_MPEG4/ISO/AVC
Продолжительность: 43 м.
Битрейт: 4041 Кбит/сек
Ширина: 1280 пикс.
Высота: 720 пикс.
Соотношение сторон: 16:9
Частота кадров: 23,976 кадр/сек
Цветовое пространство: YUV
Подвыборка цветности: 4:2:0
Битовая глубина: 8 бит
Тип развёртки: Прогрессивная
Бит/(Пиксели*Кадры): 0.183
Размер потока: 1,20 Гбайт (85%)
Библиотека кодирования: x264 core 104 r1703 cd21d05
Настройки программы: cabac=0 / ref=2 / deblock=1:0:0 / analyse=0x3:0x113 / me=hex / subme=7 / psy=1 / psy_rd=1.00:0.00 / mixed_ref=1 / me_range=16 / chroma_me=1 / trellis=1 / 8x8dct=1 / cqm=0 / deadzone=21,11 / fast_pskip=1 / chroma_qp_offset=-2 / threads=12 / sliced_threads=0 / nr=0 / decimate=1 / interlaced=0 / constrained_intra=0 / bframes=3 / b_pyramid=2 / b_adapt=1 / b_bias=0 / direct=1 / weightb=1 / open_gop=0 / weightp=2 / keyint=250 / keyint_min=25 / scenecut=40 / intra_refresh=0 / rc_lookahead=40 / rc=2pass / mbtree=1 / bitrate=4041 / ratetol=1.0 / qcomp=0.60 / qpmin=10 / qpmax=51 / qpstep=4 / cplxblur=20.0 / qblur=0.5 / vbv_maxrate=5000 / vbv_bufsize=2000 / ip_ratio=1.40 / aq=1:1.00 / nal_hrd=none

Аудио #1
Идентификатор: 2
Формат: AC-3
Формат/Информация: Audio Coding 3
Расширение режима: CM (complete main)
Идентификатор кодека: A_AC3
Продолжительность: 43 м.
Вид битрейта: Постоянный
Битрейт: 192 Кбит/сек
Канал(ы): 2 канала(ов)
Расположение каналов: Front: L R
Частота: 48,0 КГц
Битовая глубина: 16 бит
Метод сжатия: С потерями
Размер потока: 60,1 Мбайт (4%)
Заголовок: rus
Язык: Russian

Аудио #2
Идентификатор: 3
Формат: AC-3
Формат/Информация: Audio Coding 3
Расширение режима: CM (complete main)
Идентификатор кодека: A_AC3
Продолжительность: 43 м.
Вид битрейта: Постоянный
Битрейт: 384 Кбит/сек
Канал(ы): 2 канала(ов)
Расположение каналов: Front: L R
Частота: 48,0 КГц
Битовая глубина: 16 бит
Метод сжатия: С потерями
Размер потока: 120 Мбайт (8%)
Заголовок: eng
Язык: English







Поделиться:




реклама партнёра


Вернуться к началу
 Профиль Отправить личное сообщение  
 
   Похожие торренты   Автор   Торрент   Размер 
В этой теме нет новых непрочитанных сообщений. Звездные врата / Stargate [фантастика, боевик, приключения, 1994] BDRip 720p, Mvo

salma3

34 | 3

6.52 ГБ

В этой теме нет новых непрочитанных сообщений. Звёздные Врата: Атлантида / Stargate: Atlantis [S01-05] [Фантастика, 2004-2009] WEB-DL 720p, Mvo

salma3

30 | 52

131.04 ГБ

В этой теме нет новых непрочитанных сообщений. Звездные врата / Stargate [фантастика, боевик, приключения, 1994] BDRip, Mvo

salma3

70 | 6

1.46 ГБ

В этой теме нет новых непрочитанных сообщений. Звездные врата: Атлантида / Stargate: Atlantis [S04] [Фантастика, боевик, приключения, 2007-2008] BDRip 1080p, Mvo [ТВ3]

salma3

11 | 7

79.5 ГБ

В этой теме нет новых непрочитанных сообщений. Киллджой / Killjoys [Season 1 episode 1-10 of 10] (Крис Грисмер, Паоло Барзмен, Энди Микита) [Фантастика, 2015] WEB-DL 720p [Baibako]

Dracon

9 | 5

14.46 ГБ

В этой теме нет новых непрочитанных сообщений. Киллджой / Killjoys [Season 1 episode 1-10 of 10] (Крис Грисмер, Паоло Барзмен, Энди Микита) [Фантастика, 2015] WEB-DL 720p [LostFilm]

Dracon

65 | 19

12.86 ГБ

В этой теме нет новых непрочитанных сообщений. Киллджой / Killjoys [Season 1 episode 1-10 of 10] (Крис Грисмер, Паоло Барзмен, Энди Микита) [Фантастика, 2015] WEB-DL 1080p [LostFilm]

Dracon

75 | 40

17.75 ГБ


Начать новую тему Ответить на тему  [ 1 сообщение ] 




Для Мосгорсуда, Роскомнадзора и рекламодателей:: mosgorsud-torrent[собачка]yandex.ru