Торрент файл
скачать торрент магнет ссылка Добавлен: 23 фев 2012, 19:04
Размер: 6.02 ГБ
Сидеров: 7
Личеров: 12
Автор

СообщениеДобавлено: 23 фев 2012, 19:04 

Не в сети
Супермодератор
Аватара пользователя
Дата регистрации:
11 апр 2010, 18:10
Спасибо: 5801 / 7
Сообщения: 56779
Американская семейка, 3 сезон 1-9 серии / Modern Family

Перевод: Профессиональный (многоголосый, закадровый), cубтитры: отсутствуют
Формат: WEB-DLRip, MKV, H.264, AC3
Страна: США
Режиссер: Сет Гордон, Рэндалл Эйнхорн, Jason Winer, Гэйл Манкузо, Майкл Спиллер, Бет Маккарти-Миллер, Стивен Левитан
Жанр: комедия
Всего серий: ??
Продолжительность: 9 x 00:21
Год выпуска: 2011

В ролях: Эд О'Нил, София Вергара, Джули Боуэн

Описание: Современная американская семья: Джей Притчетт познакомился со сногсшибательной колумбийкой Глорией, когда она в бикини подавала ему коктейли на вечеринке, которую он устроил в день ухода егo первой жены. Теперь Джей и Глория женаты, и Джей изо всех сил старается не отставать от молодой красотки-жены и ее сына-подростка. В семье Клэр Данфи тоже не все гладко.

Рейтинг на :

Видео: 1280х720, (16/9), 23,976 fps, V_MPEG4/ISO/AVC, High@L3.1, ~4041 kbps avg, 0.183 bit/pixel
Аудио: 44,1 kHz, AC-3, 2 ch, Front: L R, 384 kbps avg


Сценарий: Илана Верник, Самир Асад Гардези, Joe Lawson, Elaine Ko, Paul Corrigan
Продюсер: Chris Smirnoff, Абрахам Хиггинботэм, Илана Верник, Caroline Williams, Joe Lawson
Оператор: Джеймс Р. Бэгдонэс
Композитор: Гэбриел Манн


РЕЛИЗ ОТ:[/field]

Общее
Уникальный идентификатор: 189214982153513269809401981728177262284 (0x8E597AE1A5E14E5CB7A58D3B34580ECC)
Полное имя: D:\Фильмы\Modern_Family_[tfile.ru]\Modern_Family_s03_e01_[tfile.ru].mkv
Формат: Matroska
Размер файла: 689 Мбайт
Продолжительность: 21 м.
Общий поток: 4426 Кбит/сек
Дата кодирования: UTC 2011-10-04 15:14:51
Программа кодирования: mkvmerge v4.2.0 ('No Talking') сборка от Jul 28 2010 18:38:23
Библиотека кодирования: libebml v1.0.0 + libmatroska v1.0.0

Видео
Идентификатор: 2
Формат: AVC
Формат/Информация: Advanced Video Codec
Профиль формата: High@L3.1
Параметр CABAC формата: Да
Параметр ReFrames формата: 4 кадры
Параметры GOP формата: M=2, N=4
Идентификатор кодека: V_MPEG4/ISO/AVC
Продолжительность: 21 м.
Битрейт: 4041 Кбит/сек
Ширина: 1280 пикс.
Высота: 720 пикс.
Соотношение сторон: 16:9
Частота кадров: 23,976 кадр/сек
Цветовое пространство: YUV
Подвыборка цветности: 4:2:0
Битовая глубина: 8 бит
Тип развёртки: Прогрессивная
Бит/(Пиксели*Кадры): 0.183
Размер потока: 616 Мбайт (89%)
Библиотека кодирования: x264 core 107 r1745 4785e8e
Настройки программы: cabac=1 / ref=3 / deblock=1:0:0 / analyse=0x3:0x113 / me=hex / subme=7 / psy=1 / psy_rd=1.00:0.00 / mixed_ref=1 / me_range=16 / chroma_me=1 / trellis=1 / 8x8dct=1 / cqm=0 / deadzone=21,11 / fast_pskip=1 / chroma_qp_offset=-2 / threads=4 / sliced_threads=0 / nr=0 / decimate=1 / interlaced=0 / constrained_intra=0 / bframes=3 / b_pyramid=2 / b_adapt=1 / b_bias=0 / direct=1 / weightb=1 / open_gop=0 / weightp=2 / keyint=250 / keyint_min=25 / scenecut=40 / intra_refresh=0 / rc_lookahead=40 / rc=2pass / mbtree=1 / bitrate=4041 / ratetol=1.0 / qcomp=0.60 / qpmin=10 / qpmax=51 / qpstep=4 / cplxblur=20.0 / qblur=0.5 / ip_ratio=1.40 / aq=1:1.00
Язык: Russian

Аудио
Идентификатор: 1
Формат: AC-3
Формат/Информация: Audio Coding 3
Расширение режима: CM (complete main)
Идентификатор кодека: A_AC3
Продолжительность: 21 м.
Вид битрейта: Постоянный
Битрейт: 384 Кбит/сек
Канал(ы): 2 канала(ов)
Расположение каналов: Front: L R
Частота: 44,1 КГц
Битовая глубина: 16 бит
Метод сжатия: С потерями
Размер потока: 59,8 Мбайт (9%)











Раздача ведётся путём добавления новых серий; при каждом добавлении создётся новый торрент. Чтобы начать докачку новой серии, пользователям необходимо сделать следующее:
(1) остановить скачивание,
(2) удалить старый торрент у себя из клиента (старые серии удалять не надо),
(3) скачать новый торрент и запустить его у себя в клиенте вместо старого, при этом указать клиенту путь в старую папку куда и должно происходить скачивание новых серий.

Ваш клиент при этом должен произвести хеширование (проверку) старой папки (если не производит сам - помогите ему сделать это), и будет докачивать только те серии которых у вас ещё нет. Старые серии при этом не удаляются, а продолжают раздаваться!

Eсли вы уже удалили старые серии, то предотвратить повторную закачку старых серий можно, отжав галочку в соответсвующих местах при запуске нового торрента. По возможности, желательно не удалять старые серии как можно дольше чтобы релизёр не столько продолжал раздавать старые серии, а смог сконцентрироваться на новых.


Голосуем за наш сайт здесь: и здесь: Если понравилась раздача, Жмём + Здесь

Внимание, добавлена 9-ая серия, 29.01.2012, перезакачайте Торрент-файл!
Поделиться:




реклама партнёра


Вернуться к началу
 Профиль Отправить личное сообщение  
 
   Похожие торренты   Автор   Торрент   Размер 
В этой теме нет новых непрочитанных сообщений. Американская семейка / Modern Family / 5 сезон 1-11 серии из 24 [Комедия, 2013] WEB-DLRip, Mvo [LostFilm]

salma3

1 | 4

3.95 ГБ

В этой теме нет новых непрочитанных сообщений. Американская семейка / Modern Family [07х01-16] (Джейсон Уайнер, Майкл Спиллер, Крис Кох) [2015, Комедия, WEB-DLRip | LostFilm]

Dracon

33 | 37

5.04 ГБ

В этой теме нет новых непрочитанных сообщений. Американская семейка / Modern Family [07x01-06 из 24] (Майкл Спиллер, Джейсон Уайнер, Гэйл Манкусо) [2015, Комедия, WEB-DL 720p | LostFilm]

Dracon

56 | 82

4.32 ГБ

В этой теме нет новых непрочитанных сообщений. Американская семейка / Modern Family [08x01-05 из 24] (Комедия, ситком, 2016) HDTV 720p | IdeaFilm

marya111

0 | 0

3.45 ГБ

В этой теме нет новых непрочитанных сообщений. Американская семейка / Modern Family [08x01-06 из 24] (Комедия, ситком, 2016) HDTV 720p | IdeaFilm

marya111

0 | 0

4.17 ГБ

В этой теме нет новых непрочитанных сообщений. Американская семейка / Modern Family [08x01-07 из 24] (2016) HDTVRip | IdeaFilm

marya111

11 | 22

2.04 ГБ

В этой теме нет новых непрочитанных сообщений. Американская семейка / Modern Family [08x01-07 из 24] (2016) HDTV 720p | IdeaFilm

marya111

14 | 14

4.89 ГБ


Начать новую тему Ответить на тему  [ 1 сообщение ] 




Для Мосгорсуда, Роскомнадзора и рекламодателей:: mosgorsud-torrent[собачка]yandex.ru