Торрент файл
скачать торрент магнет ссылка Добавлен: 23 фев 2012, 19:02
Размер: 1.56 ГБ
Сидеров: 11
Личеров: 7
Автор

СообщениеДобавлено: 23 фев 2012, 19:02 

Не в сети
Супермодератор
Аватара пользователя
Дата регистрации:
11 апр 2010, 18:10
Спасибо: 5802 / 7
Сообщения: 56779
Контакт, 1 сезон 1 серия из ?? / Touch

Перевод: Профессиональный (многоголосый, закадровый), cубтитры: отсутствуют
Формат: WEB-DL, MKV, H.264, AC3
Страна: США
Режиссер: Милан Чейлов, Френсис Лоуренс
Жанр: драма
Всего серий: ??
Продолжительность: 00:49:57
Год выпуска: 2012
В ролях: Кифер Сазерленд, David Mazouz, Гугу Мбата-Роу, Дэнни Гловер, Роксана Бруссо, Титус Уэлливер, Саймон Делани, Карен Шенас-Дэвид, Девид де Латур, Саманта Уитэйкери др.
Описание: В центре событий отец, который обнаруживает, что его сын, болеющий аутизмом, действительно может предсказывать события, которые еще не произошли.Основная идея фильма в том, что в нашем мире все взаимосвязано и практически предопределено. Всем управляют цифры.Посмотрите, и вы узнаете, к каким удивительным последствиям в мире привело то, что 11-летний мальчик молча написал несколько цифр на листе бумаги.Множество сюжетных линий, переплетающихся воедино, примеры и загадки из реального мира, персонажи, которые по-настоящему вызывают эмоции.
Рейтинг на :

Видео: 1280х720, (16/9), 23,976 fps, V_MPEG4/ISO/AVC, High@L3.1, ~4041 kbps avg, 0.183 bit/pixel
Аудио: 44, 1 kHz, AC3 Dolby Digital, 2/0 (L,R) ch, ~384 kbps

Перевод и озвучивание, студия:


сценарий Тим Кринг
продюсер Нил Ахерн мл., Кэрол Барби, Дэннис Хаммер
оператор Кертис Вер, Джо Уиллемс, Том Яцко
художник СиСи ДеСтефано, Натан Огилве
монтаж Доди Дорн

Общее
Уникальный идентификатор: 202329070355660921830407967181655534394 (0x983729597E203BFC8438A4F46E706B3A)
Полное имя: D:\Раздачи_для_[tfile.ru]\Touch_s01_[tfile.ru]\Touch_s01e01_[tfile.ru].mkv
Формат: Matroska
Версия формата: Version 2
Размер файла: 1,56 Гбайт
Продолжительность: 50 м.
Общий поток: 4426 Кбит/сек
Дата кодирования: UTC 2012-02-03 18:39:51
Программа кодирования: mkvmerge v4.5.0 ('Speed of Light') сборка от Feb1 2011 02:10:32
Библиотека кодирования: libebml v1.2.0 + libmatroska v1.1.0

Видео
Идентификатор: 1
Формат: AVC
Формат/Информация: Advanced Video Codec
Профиль формата: High@L3.1
Параметр CABAC формата: Да
Параметр ReFrames формата: 4 кадра
Идентификатор кодека: V_MPEG4/ISO/AVC
Продолжительность: 50 м.
Битрейт: 4041 Кбит/сек
Ширина: 1280 пикселей
Высота: 720 пикселей
Соотношение сторон: 16:9
Частота кадров: 23,976 кадра/сек
Цветовое пространство: YUV
Субдискретизация насыщенности: 4:2:0
Битовая глубина: 8 бит
Тип развёртки: Прогрессивная
Бит/(Пиксели*Кадры): 0.183
Размер потока: 1,39 Гбайт (89%)
Библиотека кодирования: x264 core 112 r1834 a51816a
Настройки программы: cabac=1 / ref=1 / deblock=1:0:0 / analyse=0x3:0x113 / me=hex / subme=7 / psy=1 / psy_rd=1.00:0.00 / mixed_ref=0 / me_range=16 / chroma_me=1 / trellis=1 / 8x8dct=1 / cqm=0 / deadzone=21,11 / fast_pskip=1 / chroma_qp_offset=-2 / threads=6 / sliced_threads=0 / nr=0 / decimate=1 / interlaced=0 / constrained_intra=0 / bframes=3 / b_pyramid=2 / b_adapt=1 / b_bias=0 / direct=1 / weightb=1 / open_gop=0 / weightp=2 / keyint=250 / keyint_min=25 / scenecut=40 / intra_refresh=0 / rc_lookahead=40 / rc=2pass / mbtree=1 / bitrate=4041 / ratetol=1.0 / qcomp=0.60 / qpmin=0 / qpmax=51 / qpstep=4 / cplxblur=20.0 / qblur=0.5 / ip_ratio=1.40 / aq=1:1.00
Default: Да
Forced: Нет

Аудио
Идентификатор: 2
Формат: AC-3
Формат/Информация: Audio Coding 3
Расширение режима: CM (complete main)
Идентификатор кодека: A_AC3
Продолжительность: 50 м.
Вид битрейта: Постоянный
Битрейт: 384 Кбит/сек
Каналы: 2 канала
Расположение каналов: Front: L R
Частота: 44,1 КГц
Битовая глубина: 16 бит
Метод сжатия: С потерями
Размер потока: 138 Мбайт (9%)
Язык: Russian
Default: Да
Forced: Да







Внимание! Раздача ведётся путём добавления новых серий; при каждом добавлении создётся новый торрент. Чтобы начать докачку новой серии, пользователям необходимо сделать следующее:
(1) остановить скачивание,
(2) удалить старый торрент у себя из клиента (старые серии удалять не надо),
(3) скачать новый торрент и запустить его у себя в клиенте вместо старого, при этом указать клиенту путь в старую папку куда и должно происходить скачивание новых серий.

Ваш клиент при этом должен произвести хеширование (проверку) старой папки (если не производит сам - помогите ему сделать это), и будет докачивать только те серии которых у вас ещё нет. Старые серии при этом не удаляются, а продолжают раздаваться!

Eсли вы уже удалили старые серии, то предотвратить повторную закачку старых серий можно, отжав галочку в соответсвующих местах при запуске нового торрента. По возможности, желательно не удалять старые серии как можно дольше чтобы релизёр не столько продолжал раздавать старые серии, а смог сконцентрироваться на новых.




Голосуем за наш сайт здесь: и здесь: Если понравилась раздача, Жмём + Здесь
Поделиться:




реклама партнёра


Вернуться к началу
 Профиль Отправить личное сообщение  
 
   Похожие торренты   Автор   Торрент   Размер 
В этой теме нет новых непрочитанных сообщений. Агенты Щ.И.Т. / Marvel's Agents of S.H.I.E.L.D. / 3 сезон 1-22 серия из 22 (Джесси Бокко, Милан Чейлов, Роксанн Доусон) [2015, Боевик, фантастика, драма, WEB-DLRip | LostFilm]

Dracon

377 | 344

10.75 ГБ

В этой теме нет новых непрочитанных сообщений. Агенты Щ.И.Т. / Marvel's Agents of S.H.I.E.L.D. [03x01-06 из 22] (Джесси Бокко, Милан Чейлов, Роксанн Доусон) [2015, Боевик, фантастика, драма, WEB-DL 720p | LostFilm]

Nickolas3435

83 | 252

8.39 ГБ

В этой теме нет новых непрочитанных сообщений. Агенты Щ.И.Т. / Marvel's Agents of S.H.I.E.L.D. [03x01-13 из 22] (Джесси Бокко, Милан Чейлов, Роксанн Доусон) [2015, Боевик, фантастика, драма, WEB-DL 720p | LostFilm]

Dracon

33 | 218

18.46 ГБ

В этой теме нет новых непрочитанных сообщений. Агенты Щ.И.Т. / Marvel's Agents of S.H.I.E.L.D. [03x01-07 из 22] (Джесси Бокко, Милан Чейлов, Роксанн Доусон) [2015, Боевик, фантастика, драма, WEB-DL 720p | LostFilm]

Dracon

105 | 427

9.84 ГБ

В этой теме нет новых непрочитанных сообщений. Сотня / The 100 / The Hundred [S02] (Бхарат Наллури, П.Дж. Пеше, Милан Чейлов) [2014, Драма, фантастика, WEB-DL 720р | LostFilm]

Nickolas3435

65 | 96

20.27 ГБ

В этой теме нет новых непрочитанных сообщений. Сотня / The 100 / The Hundred [S02] (Бхарат Наллури, П.Дж. Пеше, Милан Чейлов) [2014, Драма, фантастика, WEB-DL 1080р | LostFilm]

Nickolas3435

108 | 186

28.54 ГБ

В этой теме нет новых непрочитанных сообщений. Агенты Щ.И.Т. / Marvel's Agents of S.H.I.E.L.D. [03x01-06 из 22] (Джесси Бокко, Милан Чейлов, Роксанн Доусон) [2015, Боевик, фантастика, драма, WEB-DL 1080p | LostFilm]

Nickolas3435

159 | 201

10.46 ГБ


Начать новую тему Ответить на тему  [ 1 сообщение ] 




Для Мосгорсуда, Роскомнадзора и рекламодателей:: mosgorsud-torrent[собачка]yandex.ru