Торрент файл
скачать торрент магнет ссылка Добавлен: 23 фев 2012, 18:56
Размер: 19.7 ГБ
Сидеров: 7
Личеров: 20
Автор

СообщениеДобавлено: 23 фев 2012, 18:56 

Не в сети
Супермодератор
Аватара пользователя
Дата регистрации:
11 апр 2010, 18:10
Спасибо: 5801 / 7
Сообщения: 56779
Тайный круг, 1 сезон 1-15 серии / The Secret Circle

Перевод: Профессиональный (многоголосый, закадровый), cубтитры: отсутствуют
Формат: WEB-DL, MKV, H.264, AC3
Страна: США, Канада
Режиссер: Лиз Фридлендер, Гай Норман Би
Жанр: Драма, Фэнтези, Ужасы
Всего серий: 22
Продолжительность: 15 х 00:42
Год выпуска: 2011
В ролях: Бриттани Робертсон,Томас Деккер,Гейл Харольд и др.
Описание: Сериал основан на серии книг Л. Джей Смит (автор "Дневников Вампира").

Мать Кэсси Блэйк трагически погибает в огне, и осиротевшая девушка переезжает с бабушкой в небольшой городок, который много лет назад покинула ее мать. Вскоре одноклассники Кэсси посвящают девушку в тайну ее происхождения. Все они являются потомками могущественных ведьм и с нетерпением ждали Кэсси, чтобы она присоединилась к их кругу, замкнув новое поколение «Тайного Круга».

Рейтинг на:
Видео: 1280х720, (16/9), 23,976 fps, V_MPEG4/ISO/AVC, High@L3.1, ~4041 kbps avg, 0.183 bit/pixel
Аудио: 48 kHz, AC3 Dolby Digital, 2/0 (L,R) ch, ~384 kbps
Доп. информация:
Перевод: Omega.

Сценарий: Кевин Уильямсон, Лиза Джейн Смит, Эндрю Миллер

Продюсер: Сара Файн, Элизабет Крафт, Лесли Моргенштерн, Джэй Мэрчант, Ник Павонетти

Оператор: Роберт Маклаклэн, Рэмси Никелл

Композитор: Джон Фриззелл

Озвучка студия:
Общее
Уникальный идентификатор: 245557826937600893560942010011573159701 (0xB8BCB79A460B112891552618118E0715)
Полное имя: D:\Фильмы\The_Secret_Circle_s01_[tfile.ru]\The_Secret_Circle_s01_e01_[tfile.ru].mkv
Формат: Matroska
Размер файла: 1,32 Гбайт
Продолжительность: 42 м.
Общий поток: 4427 Кбит/сек
Дата кодирования: UTC 2011-10-10 14:29:57
Программа кодирования: mkvmerge v4.2.0 ('No Talking') сборка от Jul 28 2010 18:38:23
Библиотека кодирования: libebml v1.0.0 + libmatroska v1.0.0

Видео
Идентификатор: 1
Формат: AVC
Формат/Информация: Advanced Video Codec
Профиль формата: High@L3.1
Параметр CABAC формата: Да
Параметр ReFrames формата: 4 кадры
Параметры GOP формата: M=2, N=4
Идентификатор кодека: V_MPEG4/ISO/AVC
Продолжительность: 42 м.
Битрейт: 4041 Кбит/сек
Ширина: 1280 пикс.
Высота: 720 пикс.
Соотношение сторон: 16:9
Частота кадров: 23,976 кадр/сек
Цветовое пространство: YUV
Подвыборка цветности: 4:2:0
Битовая глубина: 8 бит
Тип развёртки: Прогрессивная
Бит/(Пиксели*Кадры): 0.183
Размер потока: 1,18 Гбайт (89%)
Библиотека кодирования: x264 core 107 r1745 4785e8e
Настройки программы: cabac=1 / ref=3 / deblock=1:0:0 / analyse=0x3:0x113 / me=hex / subme=7 / psy=1 / psy_rd=1.00:0.00 / mixed_ref=1 / me_range=16 / chroma_me=1 / trellis=1 / 8x8dct=1 / cqm=0 / deadzone=21,11 / fast_pskip=1 / chroma_qp_offset=-2 / threads=4 / sliced_threads=0 / nr=0 / decimate=1 / interlaced=0 / constrained_intra=0 / bframes=3 / b_pyramid=2 / b_adapt=1 / b_bias=0 / direct=1 / weightb=1 / open_gop=0 / weightp=2 / keyint=250 / keyint_min=25 / scenecut=40 / intra_refresh=0 / rc_lookahead=40 / rc=2pass / mbtree=1 / bitrate=4041 / ratetol=1.0 / qcomp=0.60 / qpmin=10 / qpmax=51 / qpstep=4 / cplxblur=20.0 / qblur=0.5 / ip_ratio=1.40 / aq=1:1.00

Аудио
Идентификатор: 2
Формат: AC-3
Формат/Информация: Audio Coding 3
Расширение режима: CM (complete main)
Идентификатор кодека: A_AC3
Продолжительность: 42 м.
Вид битрейта: Постоянный
Битрейт: 384 Кбит/сек
Канал(ы): 2 канала(ов)
Расположение каналов: Front: L R
Частота: 44,1 КГц
Битовая глубина: 16 бит
Метод сжатия: С потерями
Размер потока: 117 Мбайт (9%)
Язык: Russian












Внимание,раздача ведется путем добавления новых серий!
Раздача ведётся путём добавления новых серий; при каждом добавлении создётся новый торрент. Чтобы начать докачку новой серии, пользователям необходимо сделать следующее:
(1) остановить скачивание,
(2) удалить старый торрент у себя из клиента (старые серии удалять не надо),
(3) скачать новый торрент и запустить его у себя в клиенте вместо старого, при этом указать клиенту путь в старую папку куда и должно происходить скачивание новых серий.

Ваш клиент при этом должен произвести хеширование (проверку) старой папки (если не производит сам - помогите ему сделать это), и будет докачивать только те серии которых у вас ещё нет. Старые серии при этом не удаляются, а продолжают раздаваться!

Eсли вы уже удалили старые серии, то предотвратить повторную закачку старых серий можно, отжав галочку в соответсвующих местах при запуске нового торрента. По возможности, желательно не удалять старые серии как можно дольше чтобы релизёр не столько продолжал раздавать старые серии, а смог сконцентрироваться на новых.

Голосуем за наш сайт здесь: и здесь: Если понравилась раздача, Жмём + Здесь

Внимание,добавлена 15-ая серия 19.02.2012 перезакачайте Торрент-файл!
Поделиться:




реклама партнёра


Вернуться к началу
 Профиль Отправить личное сообщение  
 
   Похожие торренты   Автор   Торрент   Размер 
В этой теме нет новых непрочитанных сообщений. Разомкнутый круг / Разорванный круг / The Broken Circle Breakdown [драма, 2012] HDRip, Mvo [Лицензия]

Dracon

474 | 30

2.05 ГБ

В этой теме нет новых непрочитанных сообщений. Гримм / Grimm / 4 сезон 1-22 серии из 22 [Драма, Фэнтези, Ужасы, 2014] WEB-DLRip, Mvo [LostFilm]

salma3

1633 | 1031

10.11 ГБ

В этой теме нет новых непрочитанных сообщений. Укушенная / Bitten / 2 сезон 1-10 серии из 10 [ужасы, фэнтези, детектив, драма, 2015] WEB-DLRip, Mvo [LostFilm ]

salma3

134 | 61

3.66 ГБ

В этой теме нет новых непрочитанных сообщений. Гримм / Grimm / 4 сезон 1-21 серии из 22 [Драма, Фэнтези, Ужасы, 2014] WEB-DLRip 1080p, Mvo [LostFilm]

salma3

48 | 236

38.04 ГБ

В этой теме нет новых непрочитанных сообщений. Укушенная / Bitten / 3 сезон 1-10 серии из 10 [ужасы, фэнтези, драма, детектив, 2016] WEB-DLRip, Mvo [LostFilm]

salma3

84 | 62

5.84 ГБ

В этой теме нет новых непрочитанных сообщений. Тайный дневник девушки по вызову / Secret Diary of a Call Girl / 1-4 сезоны 1-32 серии из 32 [драма, мелодрама, 2007-2011] DVDRip, Mvo [МузТВ]

salma3

28 | 15

6.05 ГБ

В этой теме нет новых непрочитанных сообщений. Нация Z / Z Nation / 3 сезон 1-13 серии из 14 [Боевик, Драма, Ужасы, Фантастика,, 2016] WEB-DL 720p, Mvo [LostFilm]

salma3

24 | 162

18.57 ГБ


Начать новую тему Ответить на тему  [ 1 сообщение ] 




Для Мосгорсуда, Роскомнадзора и рекламодателей:: mosgorsud-torrent[собачка]yandex.ru