Торрент файл
скачать торрент магнет ссылка Добавлен: 04 фев 2012, 13:52
Размер: 8.35 ГБ
Сидеров: 11
Личеров: 13
Автор

СообщениеДобавлено: 04 фев 2012, 13:52 

Не в сети
Супермодератор
Аватара пользователя
Дата регистрации:
11 апр 2010, 18:10
Спасибо: 5798 / 7
Сообщения: 56779
Жеребец, 3 сезон 1-10 серии из 10 / Hung

Перевод: Профессиональный (многоголосый, закадровый), cубтитры: отсутствуют
Формат: HDTV, MKV, H.264, AC3
Страна: США
Режиссер: Colette Burson
Жанр: Комедия, драма
Всего серий: 10
Продолжительность: 10 х 00:27
Год выпуска: 2011
В ролях: Томас Джейн, Джейн Адамс, Эдди Джемисон, Чарли Сэкстон, Sianoa Smit-McPhee, Энн Хеч, Ребекка Крескофф, Грегг Генри и др.
Описание: Рэй когда-то был звездой бейсбола, но все это уже далеко позади. Сейчас он работает тренером баскетбольной школьной команды, от него ушла жена, он живет в простом домике со своими двумя детьми, и денег не хватает ни на что. После того как его дом сгорает, а дети переезжают к маме, он понимает, что надо в жизни что-то менять, так как жить на такие гроши больше просто невозможно.
Рейтинг на:

Видео: 1280х720, (16/9), 23,976 fps, V_MPEG4/ISO/AVC, High@L3.1, ~4041 kbps avg, 0.183 bit/pixel
Аудио: 44, 1 kHz, AC3 Dolby Digital, 2/0 (L,R) ch, ~384 kbps

Доп. информация:
Перевод: Петр Чайников.
Релиз и озвучка: Студия
Общее
Уникальный идентификатор: 206126279680220016973803156052296846702 (0x9B127A39410918598DD77D74196FCD6E)
Полное имя: C:\Раздачи_для_[tfile.ru]\Hung_s03_LostFilm_[tfile.ru]\Hung_s03e01_[tfile.ru].mkv
Формат: Matroska
Версия формата: Version 2
Размер файла: 870 Мбайт
Продолжительность: 27 м.
Общий поток: 4431 Кбит/сек
Дата кодирования: UTC 2011-10-27 15:06:16
Программа кодирования: mkvmerge v4.2.0 ('No Talking') сборка от Jul 28 2010 18:38:23
Библиотека кодирования: libebml v1.0.0 + libmatroska v1.0.0

Видео
Идентификатор: 1
Формат: AVC
Формат/Информация: Advanced Video Codec
Профиль формата: High@L3.1
Параметр CABAC формата: Да
Параметр ReFrames формата: 4 кадра
Идентификатор кодека: V_MPEG4/ISO/AVC
Продолжительность: 27 м.
Битрейт: 4041 Кбит/сек
Ширина: 1280 пикселей
Высота: 720 пикселей
Соотношение сторон: 16:9
Частота кадров: 23,976 кадра/сек
Цветовое пространство: YUV
Субдискретизация насыщенности: 4:2:0
Битовая глубина: 8 бит
Тип развёртки: Прогрессивная
Бит/(Пиксели*Кадры): 0.183
Размер потока: 778 Мбайт (89%)
Библиотека кодирования: x264 core 107 r1745 4785e8e
Настройки программы: cabac=1 / ref=3 / deblock=1:0:0 / analyse=0x3:0x113 / me=hex / subme=7 / psy=1 / psy_rd=1.00:0.00 / mixed_ref=1 / me_range=16 / chroma_me=1 / trellis=1 / 8x8dct=1 / cqm=0 / deadzone=21,11 / fast_pskip=1 / chroma_qp_offset=-2 / threads=4 / sliced_threads=0 / nr=0 / decimate=1 / interlaced=0 / constrained_intra=0 / bframes=3 / b_pyramid=2 / b_adapt=1 / b_bias=0 / direct=1 / weightb=1 / open_gop=0 / weightp=2 / keyint=250 / keyint_min=25 / scenecut=40 / intra_refresh=0 / rc_lookahead=40 / rc=2pass / mbtree=1 / bitrate=4041 / ratetol=1.0 / qcomp=0.60 / qpmin=10 / qpmax=51 / qpstep=4 / cplxblur=20.0 / qblur=0.5 / ip_ratio=1.40 / aq=1:1.00

Аудио
Идентификатор: 2
Формат: AC-3
Формат/Информация: Audio Coding 3
Расширение режима: CM (complete main)
Идентификатор кодека: A_AC3
Продолжительность: 27 м.
Вид битрейта: Постоянный
Битрейт: 384 Кбит/сек
Каналы: 2 канала
Расположение каналов: Front: L R
Частота: 44,1 КГц
Битовая глубина: 16 бит
Метод сжатия: С потерями
Размер потока: 75,4 Мбайт (9%)
Язык: Russian










Не забываем голосовать за наш сайт здесь: и здесь: Если понравилась раздача, Жмём +


Внимание!Добавлена 10-ая серия, 23.01.2012 г. Перезакачайте Торрент- файл.
Поделиться:




реклама партнёра


Вернуться к началу
 Профиль Отправить личное сообщение  
 
   Похожие торренты   Автор   Торрент   Размер 
В этой теме нет новых непрочитанных сообщений. Салем / Salem / 3 сезон 1-03 серии из 13 [фантастика, триллер, драма, 2016] WEB-DL 720p, Mvo [LostFilm]

salma3

22 | 46

5.04 ГБ

В этой теме нет новых непрочитанных сообщений. Нация Z / Z Nation / 3 сезон 1-11 серии из 14 [Боевик, Драма, Ужасы, Фантастика,, 2016] WEB-DL 720p, Mvo [LostFilm]

salma3

26 | 35

15.69 ГБ

В этой теме нет новых непрочитанных сообщений. Ведьмы Ист-Энда / Witches of East End / 1 сезон 1-10 серии из 10 [фэнтези, драма, 2013] WEB-DLRip 720p, Mvo [LostFilm]

salma3

84 | 57

14.1 ГБ

В этой теме нет новых непрочитанных сообщений. Полиция Гавайев / Гавайи 5.0 / Hawaii Five-0 / 7 сезон 1-09 серии из 25 [Боевик, драма, криминал, 2016] WEB-DL 720p, Mvo [LostFilm]

salma3

0 | 0

12.99 ГБ

В этой теме нет новых непрочитанных сообщений. Стрела / Arrow / 2 сезон 1-23 серии из 23 [фантастика, боевик, драма, криминал, приключения, 2013-2014] WEB-DL 720p, Mvo [LostFilm]

salma3

12 | 3

32.92 ГБ

В этой теме нет новых непрочитанных сообщений. Вызов / Непокорная Земля / Defiance [3 сезон 1-13 серии из 13] (Майкл Нанкин) [фантастика, боевик, драма, 2015] WEB-DLRip 720p, Mvo [LostFilm]

Dracon

85 | 116

18.28 ГБ

В этой теме нет новых непрочитанных сообщений. Красавица и чудовище / Beauty and the Beast / 2 сезон 1-22 серии из 22 [триллер, драма, криминал, детектив, 2013-2014] WEB-DLRip 720p, Mvo [LostFilm]

salma3

31 | 64

31.23 ГБ


Начать новую тему Ответить на тему  [ 1 сообщение ] 




Для Мосгорсуда, Роскомнадзора и рекламодателей:: mosgorsud-torrent[собачка]yandex.ru