Торрент файл
скачать торрент магнет ссылка Добавлен: 04 фев 2012, 13:45
Размер: 5.91 ГБ
Сидеров: 94
Личеров: 71
Автор

СообщениеДобавлено: 04 фев 2012, 13:45 

Не в сети
Супермодератор
Аватара пользователя
Дата регистрации:
11 апр 2010, 18:10
Спасибо: 5802 / 7
Сообщения: 56779
Алькатрас, 1 сезон 1-4 серии из ?? / Alcatraz

Перевод: Профессиональный (многоголосый, закадровый), cубтитры: отсутствуют
Формат: WEB-DL, MKV, H.264, AC3
Страна: США
Режиссер: Danny Cannon, Jack Bender
Жанр: боевик, триллер, детектив
Всего серий: ??
Продолжительность: 4 x 00:47
Год выпуска: 2012
В ролях: Sarah Jones, Sam Neill, Jorge Garcia, Jonny Coyne, Jason Butler Harner, Parminder Nagra, Robert Forster, Santiago Cabrera, David Hoflin и др
Описание: История доктора Диего Сото, лучшего в мире знатока самой знаменитой американской тюрьмы «Алькатрас», расположенной на острове у берегов Сан-Франциско. Сото предстоит разгадать тайну, связанную с загадочным исчезновением заключенных и охранников «Алькатраса» много лет назад и неожиданным их появлением в уже недействующей тюрьме (она была закрыта в 1963 году) в наши дни.
Рейтинг на :

Видео: 1280х720, (16/9), 23,976 fps, V_MPEG4/ISO/AVC, High@L3.1, ~4041 kbps avg, 0.183 bit/pixel
Аудио: 48, 0 kHz, AC3 Dolby Digital, 2/0 (L,R) ch, ~384 kbps

Релиз от:

Озвучка: Студия "Кравец"
режиссер Брэд Андерсон, Джек Бендер, Дэнни Кэннон
сценарий Стивен Лилиен, Лиз Сарнофф, Брайан Винбрандт
продюсер Роберт Халл
оператор Стивен МакНатт, Дэвид Стоктон
композитор Andrea Datzman, Майкл Джаккино
художник Зак Гроблер, Дженнифер Дональдсон, Josh Koral
жанр фантастика, боевик, триллер, детектив






Общее
Уникальный идентификатор: 254687472308973319415624885888430092417 (0xBF9B05DF4406D2F6A1A0B7446E83B081)
Полное имя: D:\Раздачи_для_[tfile.ru]\Alcatraz_s01_[tfile.ru]\Alcatraz_s01_e01e02_[tfile.ru].mkv
Формат: Matroska
Версия формата: Version 2
Размер файла: 2,97 Гбайт
Продолжительность: 1 ч. 28 м.
Общий поток: 4811 Кбит/сек
Дата кодирования: UTC 2012-01-18 18:48:12
Программа кодирования: mkvmerge v4.2.0 ('No Talking') сборка от Jul 28 2010 18:38:23
Библиотека кодирования: libebml v1.0.0 + libmatroska v1.0.0

Видео
Идентификатор: 1
Формат: AVC
Формат/Информация: Advanced Video Codec
Профиль формата: High@L3.1
Параметр CABAC формата: Да
Параметр ReFrames формата: 4 кадра
Идентификатор кодека: V_MPEG4/ISO/AVC
Продолжительность: 1 ч. 28 м.
Битрейт: 4041 Кбит/сек
Ширина: 1280 пикселей
Высота: 720 пикселей
Соотношение сторон: 16:9
Частота кадров: 23,976 кадра/сек
Цветовое пространство: YUV
Субдискретизация насыщенности: 4:2:0
Битовая глубина: 8 бит
Тип развёртки: Прогрессивная
Бит/(Пиксели*Кадры): 0.183
Размер потока: 2,43 Гбайт (82%)
Библиотека кодирования: x264 core 112 r1834 a51816a
Настройки программы: cabac=1 / ref=1 / deblock=1:0:0 / analyse=0x3:0x113 / me=hex / subme=7 / psy=1 / psy_rd=1.00:0.00 / mixed_ref=0 / me_range=16 / chroma_me=1 / trellis=1 / 8x8dct=1 / cqm=0 / deadzone=21,11 / fast_pskip=1 / chroma_qp_offset=-2 / threads=6 / sliced_threads=0 / nr=0 / decimate=1 / interlaced=0 / constrained_intra=0 / bframes=3 / b_pyramid=2 / b_adapt=1 / b_bias=0 / direct=1 / weightb=1 / open_gop=0 / weightp=2 / keyint=250 / keyint_min=25 / scenecut=40 / intra_refresh=0 / rc_lookahead=40 / rc=2pass / mbtree=1 / bitrate=4041 / ratetol=1.0 / qcomp=0.60 / qpmin=0 / qpmax=51 / qpstep=4 / cplxblur=20.0 / qblur=0.5 / ip_ratio=1.40 / aq=1:1.00
Default: Да
Forced: Нет

Аудио #1
Идентификатор: 2
Формат: AC-3
Формат/Информация: Audio Coding 3
Расширение режима: CM (complete main)
Идентификатор кодека: A_AC3
Продолжительность: 1 ч. 28 м.
Вид битрейта: Постоянный
Битрейт: 384 Кбит/сек
Каналы: 2 канала
Расположение каналов: Front: L R
Частота: 48,0 КГц
Битовая глубина: 16 бит
Метод сжатия: С потерями
Размер потока: 242 Мбайт (8%)
Default: Да
Forced: Нет

Аудио #2
Идентификатор: 3
Формат: AC-3
Формат/Информация: Audio Coding 3
Расширение режима: CM (complete main)
Идентификатор кодека: A_AC3
Продолжительность: 1 ч. 28 м.
Вид битрейта: Постоянный
Битрейт: 384 Кбит/сек
Каналы: 2 канала
Расположение каналов: Front: L R
Частота: 48,0 КГц
Битовая глубина: 16 бит
Метод сжатия: С потерями
Размер потока: 242 Мбайт (8%)
Default: Нет
Forced: Нет


Внимание! Раздача ведётся путём добавления новых серий; при каждом добавлении создётся новый торрент. Чтобы начать докачку новой серии, пользователям необходимо сделать следующее:
(1) остановить скачивание,
(2) удалить старый торрент у себя из клиента (старые серии удалять не надо),
(3) скачать новый торрент и запустить его у себя в клиенте вместо старого, при этом указать клиенту путь в старую папку куда и должно происходить скачивание новых серий.

Ваш клиент при этом должен произвести хеширование (проверку) старой папки (если не производит сам - помогите ему сделать это), и будет докачивать только те серии которых у вас ещё нет. Старые серии при этом не удаляются, а продолжают раздаваться!

Eсли вы уже удалили старые серии, то предотвратить повторную закачку старых серий можно, отжав галочку в соответсвующих местах при запуске нового торрента. По возможности, желательно не удалять старые серии как можно дольше чтобы релизёр не столько продолжал раздавать старые серии, а смог сконцентрироваться на новых.


Голосуем за наш сайт здесь: и здесь: Если понравилась раздача, Жмём + Здесь


Внимание, добавлена 4-ая серия, 02.02.2012 перезакачайте торрент
Поделиться:




реклама партнёра


Вернуться к началу
 Профиль Отправить личное сообщение  
 
   Похожие торренты   Автор   Торрент   Размер 
В этой теме нет новых непрочитанных сообщений. Чёрный список / The Blacklist / 3 сезон 1-23 серии из 23 [триллер, детектив, боевик, 2015] WEB-DLRip, Mvo [LostFilm]

salma3

332 | 351

11.24 ГБ

В этой теме нет новых непрочитанных сообщений. Красавица и чудовище / Beauty and the Beast / 2 сезон 1-22 серии из 22 [триллер, драма, криминал, детектив, 2013-2014] WEB-DLRip 720p, Mvo [LostFilm]

salma3

31 | 64

31.23 ГБ

В этой теме нет новых непрочитанных сообщений. Подозреваемый / В поле зрения / Person of Interest / 3 сезон 1-23 серии из 23 [боевик, триллер, драма, детектив , 2013] WEB-DLRip, Mvo LostFilm

salma3

241 | 87

9.49 ГБ

В этой теме нет новых непрочитанных сообщений. Чужой среди своих / Родина / Homeland (Сезон 2-4, Серии 1-28 из 36) [2012-2014, Триллер, драма, криминал, детектив , WEBDLRip-AVC 720р] [MVO] (LostFilm)

Враг Нароода

В этой теме нет новых непрочитанных сообщений. Чёрный список / The Blacklist / 2 сезон 1-22 серии из 22 [Драма, криминал, боевик, триллер, детектив, 2014-2015] WEB-DLRip 1080p, Mvo [LostFilm]

salma3

66 | 67

39.75 ГБ

В этой теме нет новых непрочитанных сообщений. Салем / Salem / 3 сезон 1-04 серии из 13 [фантастика, триллер, драма, 2016] WEB-DL 720p, Mvo [LostFilm]

salma3

36 | 72

6.6 ГБ

В этой теме нет новых непрочитанных сообщений. Нация Z / Z Nation / 3 сезон 1-13 серии из 14 [Боевик, Драма, Ужасы, Фантастика,, 2016] WEB-DL 720p, Mvo [LostFilm]

salma3

24 | 162

18.57 ГБ


Начать новую тему Ответить на тему  [ 1 сообщение ] 




Для Мосгорсуда, Роскомнадзора и рекламодателей:: mosgorsud-torrent[собачка]yandex.ru