Торрент файл
скачать торрент магнет ссылка Добавлен: 22 янв 2012, 16:10
Размер: 26.24 ГБ
Сидеров: 15
Личеров: 27
Автор

СообщениеДобавлено: 22 янв 2012, 16:10 

Не в сети
Супермодератор
Аватара пользователя
Дата регистрации:
11 апр 2010, 18:10
Спасибо: 5801 / 7
Сообщения: 56779
Чужой среди своих, 1 сезон 1-12 серии / Homeland


Перевод: Профессиональный (многоголосый, закадровый), cубтитры: отсутствуют
Формат: HDTV, MKV, H.264/AVC, AC3
Страна: сша
Режиссер: Майкл Куэста
Жанр: триллер, драма, детектив
Всего серий: 12
Продолжительность: 12 х 00:57
Год выпуска: 2011
В ролях: Клэр Дэйнс, Дэмиен Льюис, Мэнди Пэтинкин, Морена Бэккарин, Дэвид Хэйрвуд, Диего Клэттенхофф и др
Описание: Аналитик ЦРУ Кэрри Мэтисон во время операции в Ираке выясняет, что американский военнопленный завербован Аль-Каедой. Вскоре после этого отряд спецназа Дельта во время зачистки обнаруживает сержанта морской пехоты Николаса Броуди, который числился пропавшим без вести с 2003-го года.
Рейтинг на :

Видео: 1280x720 (16:9), MPEG4/ISO/AVC High@L4.1, 23.976 fps, 4676 Kbps, 0.212 bit/pixe

Аудио Rus: 48.0 kHz, AC3 Dolby Digital, 3/2 (L, C, R, l, r) + LFE ch, ~384 kb
Аудио Eng: 48.0 kHz, AC3 Dolby Digital, 2/0 (L R) ch, ~384 kb

Доп. информация:
Перевод: Z
Рип: Alucard
Озвучивание: Руслан Габидуллин, Константин Погодаев, Ольга Кравцова, Анна Тух, Андрей Федосов
Работа со звуком: jugin

Релиз от:
Общее
Уникальный идентификатор: 255192110984454847124173051406183675378 (0xBFFC367AD2C5952CBB4788A5B745B5F2)
Полное имя: E:\Homeland_s01_[tfile.ru]\homeland_s01_e01_[tfile.ru].mkv
Формат: Matroska
Версия формата: Version 2
Размер файла: 2,19 Гбайт
Продолжительность: 57 м.
Общий поток: 5446 Кбит/сек
Дата кодирования: UTC 2011-10-04 19:16:28
Программа кодирования: mkvmerge v4.9.1 ('Ich will') сборка от Jul 11 2011 23:53:15
Библиотека кодирования: libebml v1.2.1 + libmatroska v1.1.1

Видео
Идентификатор: 1
Формат: AVC
Формат/Информация: Advanced Video Codec
Профиль формата: High@L4.1
Параметр CABAC формата: Да
Параметр ReFrames формата: 6 кадров
Идентификатор кодека: V_MPEG4/ISO/AVC
Продолжительность: 57 м.
Битрейт: 4676 Кбит/сек
Ширина: 1280 пикселей
Высота: 720 пикселей
Соотношение сторон: 16:9
Частота кадров: 23,976 кадра/сек
Цветовое пространство: YUV
Субдискретизация насыщенности: 4:2:0
Битовая глубина: 8 бит
Тип развёртки: Прогрессивная
Бит/(Пиксели*Кадры): 0.212
Размер потока: 1,83 Гбайт (84%)
Заголовок: Homeland - Season 1, Episode 1: Pilot
Библиотека кодирования: x264 core 116 r2074 2641b9e
Настройки программы: cabac=1 / ref=6 / deblock=1:-3:-3 / analyse=0x3:0x133 / me=umh / subme=6 / psy=1 / psy_rd=1.00:0.00 / mixed_ref=1 / me_range=24 / chroma_me=1 / trellis=2 / 8x8dct=1 / cqm=0 / deadzone=21,11 / fast_pskip=1 / chroma_qp_offset=-4 / threads=3 / sliced_threads=0 / nr=0 / decimate=1 / interlaced=0 / bluray_compat=0 / constrained_intra=0 / bframes=3 / b_pyramid=0 / b_adapt=2 / b_bias=0 / direct=3 / weightb=1 / open_gop=0 / weightp=2 / keyint=250 / keyint_min=23 / scenecut=40 / intra_refresh=0 / rc_lookahead=40 / rc=2pass / mbtree=1 / bitrate=4676 / ratetol=1.0 / qcomp=0.60 / qpmin=10 / qpmax=51 / qpstep=4 / cplxblur=20.0 / qblur=0.5 / ip_ratio=1.40 / aq=1:1.00
Язык: English

Аудио #1
Идентификатор: 2
Формат: AC-3
Формат/Информация: Audio Coding 3
Расширение режима: CM (complete main)
Идентификатор кодека: A_AC3
Продолжительность: 57 м.
Вид битрейта: Постоянный
Битрейт: 384 Кбит/сек
Каналы: 6 каналов
Расположение каналов: Front: L C R, Side: L R, LFE
Частота: 48,0 КГц
Битовая глубина: 16 бит
Метод сжатия: С потерями
Размер потока: 158 Мбайт (7%)
Заголовок: Dolby Digital 5.1 @ 384 kbps
Язык: Russian

Аудио #2
Идентификатор: 3
Формат: AC-3
Формат/Информация: Audio Coding 3
Расширение режима: CM (complete main)
Идентификатор кодека: A_AC3
Продолжительность: 57 м.
Вид битрейта: Постоянный
Битрейт: 384 Кбит/сек
Каналы: 2 канала
Расположение каналов: Front: L R
Частота: 48,0 КГц
Битовая глубина: 16 бит
Метод сжатия: С потерями
Размер потока: 158 Мбайт (7%)
Заголовок: Dolby Digital 5.1 @ 384 kbps
Язык: English












Не забываем голосовать за наш сайт здесь: и здесь: Если понравилась раздача, Жмём +

Внимание, Добавлена 11-12-ая серии, 26.12.2011, перезакачайте торрент-файл!
Сезон окончен!
Поделиться:




реклама партнёра


Вернуться к началу
 Профиль Отправить личное сообщение  
 
   Похожие торренты   Автор   Торрент   Размер 
В этой теме нет новых непрочитанных сообщений. Чужой среди своих / Родина / Homeland [04x01-06 из 12] (Майкл Куэста) [2014, Триллер, драма, детектив, WEB-DLRip | Amedia]

Nickolas3435

75 | 106

3.83 ГБ

В этой теме нет новых непрочитанных сообщений. Чужой среди своих / Родина / Homeland [04x01-07 из 12] (Майкл Куэста) [2014, Триллер, драма, детектив, WEB-DLRip | Amedia]

Nickolas3435

68 | 88

4.5 ГБ

В этой теме нет новых непрочитанных сообщений. Чужой среди своих / Родина / Homeland (Сезон 2-4, Серии 1-28 из 36) [2012-2014, Триллер, драма, криминал, детектив , WEBDLRip-AVC 720р] [MVO] (LostFilm)

Враг Нароода

В этой теме нет новых непрочитанных сообщений. Чужой среди своих / Родина / Homeland [S04] [Триллер, драма, детектив, 2014] WEB-DLRip 1080p [LostFilm]

Dracon

128 | 80

24.62 ГБ

В этой теме нет новых непрочитанных сообщений. Чужой среди своих / Родина / Homeland [04x01-12 из 12] [2014, Триллер, драма, детектив, WEB-DLRip | Amedia]

Nickolas3435

238 | 120

7.65 ГБ

В этой теме нет новых непрочитанных сообщений. Родина (Чужой среди своих) / Homeland [Seasons 4 episode 12 of 12] [Драма, Триллер, 2014] WEB-DL 720p [Студия Пифагор по заказу Amedia]

Dracon

71 | 36

19.68 ГБ

В этой теме нет новых непрочитанных сообщений. Родина / Homeland [05х01-12 из 12] (Кларк Джонсон, Майкл Куэста, Дэниэл Эттиэс) [2015, Детектив, Драма, Криминал, Триллер, WEB-DL 720p | Amedia]

Dracon

20 | 14

20.45 ГБ


Начать новую тему Ответить на тему  [ 1 сообщение ] 




Для Мосгорсуда, Роскомнадзора и рекламодателей:: mosgorsud-torrent[собачка]yandex.ru