Торрент файл
скачать торрент магнет ссылка Добавлен: 22 янв 2012, 16:09
Размер: 14.43 ГБ
Сидеров: 27
Личеров: 19
Автор

СообщениеДобавлено: 22 янв 2012, 16:09 

Не в сети
Супермодератор
Аватара пользователя
Дата регистрации:
11 апр 2010, 18:10
Спасибо: 5801 / 7
Сообщения: 56779
Визитеры, 2 сезон 1-10 серии / V


Перевод: Профессиональный (многоголосый, закадровый), cубтитры: отсутствуют
Формат:WEB-DL, MKV, H.264/AVC, AC3
Страна: США
Режиссер: Ив Симоно, Роберт Дункан Макнейл
Жанр: драма, фантастика
Всего серий:10
Продолжительность: 10 х 00:43
Год выпуска: 2011

В ролях:
Элизабет Митчелл, Джоэль Гретш, Лаура Вандервурт, Логан Хаффман, Лурдес Бенедикто, Морена Баккарин, Моррис Честнат, Скотт Вулф

Описание:
Сегодня весь мир проснулся и увидел, что над каждым городом парят космические корабли. Прибывшие утверждают что пришли с миром, и предлагают подарки в виде медицинских открытий и технологических усовершенствований. Они обещают, что не навредят. Они лгут. Большинство человечества верит, что чужие прибыли как раз тогда, когда мы в них нуждались. Люди с радостью принимают их помощь.

Но во время расследования террористической ячейки агент госбезопасности Эрика Эванс обнаруживает нечто вовсе не безобидное. Когда ее напарник пытается ее убить, Эрика обнаруживает, что пришельцы планируют внедриться в правительства и крупные корпорации, чтобы в будущем захватить все человечество. Но убедить в этом остальных практически невозможно, ведь в руках пришельцев два мощных козыря. Во-первых, они завоевали веру и любовь людей, благодаря своим подаркам. Во-вторых, они взяли под контроль почти всех подростков.


Рейтинг на:


Видео:1280х720, (16/9), 23,976 fps, V_MPEG4/ISO/AVC, High@L3.1, ~4041 kbps avg, 0.183 bit/pixel.
Аудио:48,0 kHz, AC-3, 2 ch, Front: L R, 384 kbps avg
Аудио:48,0 kHz, AC-3, 2 ch, Front: L R, 384 kbps avg

Доп. информация:
Озвучание: Студия "Кравец"

Общее
Уникальный идентификатор: 184763847378441739650235683870798170516 (0x8B0038FE52398E0289A60B34AAFEC994)
Полное имя: D:\Фильмы\viziteri_s02_[tfile.ru]\V_s02e08_[tfile.ru].mkv
Формат: Matroska
Размер файла: 1,38 Гбайт
Продолжительность: 41 м.
Общий поток: 4811 Кбит/сек
Дата кодирования: UTC 2011-03-05 16:16:46
Программа кодирования: mkvmerge v4.3.0 ('Escape from the Island') сборка от Sep5 2010 10:30:51
Библиотека кодирования: libebml v1.0.0 + libmatroska v1.0.0

Видео
Идентификатор: 1
Формат: AVC
Формат/Информация: Advanced Video Codec
Профиль формата: High@L3.1
Параметр CABAC формата: Да
Параметр ReFrames формата: 4 кадры
Параметры GOP формата: M=2, N=4
Идентификатор кодека: V_MPEG4/ISO/AVC
Продолжительность: 41 м.
Битрейт: 4041 Кбит/сек
Ширина: 1280 пикс.
Высота: 720 пикс.
Соотношение сторон: 16:9
Частота кадров: 23,976 кадр/сек
Цветовое пространство: YUV
Подвыборка цветности: 4:2:0
Битовая глубина: 8 бит
Тип развёртки: Прогрессивная
Бит/(Пиксели*Кадры): 0.183
Размер потока: 1,13 Гбайт (82%)
Библиотека кодирования: x264 core 112 r1834 a51816a
Настройки программы: cabac=1 / ref=1 / deblock=1:0:0 / analyse=0x3:0x113 / me=hex / subme=7 / psy=1 / psy_rd=1.00:0.00 / mixed_ref=0 / me_range=16 / chroma_me=1 / trellis=1 / 8x8dct=1 / cqm=0 / deadzone=21,11 / fast_pskip=1 / chroma_qp_offset=-2 / threads=12 / sliced_threads=0 / nr=0 / decimate=1 / interlaced=0 / constrained_intra=0 / bframes=3 / b_pyramid=2 / b_adapt=1 / b_bias=0 / direct=1 / weightb=1 / open_gop=0 / weightp=2 / keyint=250 / keyint_min=25 / scenecut=40 / intra_refresh=0 / rc_lookahead=40 / rc=2pass / mbtree=1 / bitrate=4041 / ratetol=1.0 / qcomp=0.60 / qpmin=0 / qpmax=51 / qpstep=4 / cplxblur=20.0 / qblur=0.5 / ip_ratio=1.40 / aq=1:1.00

Аудио #1
Идентификатор: 2
Формат: AC-3
Формат/Информация: Audio Coding 3
Расширение режима: CM (complete main)
Идентификатор кодека: A_AC3
Продолжительность: 41 м.
Вид битрейта: Постоянный
Битрейт: 384 Кбит/сек
Канал(ы): 2 канала(ов)
Расположение каналов: Front: L R
Частота: 48,0 КГц
Битовая глубина: 16 бит
Метод сжатия: С потерями
Размер потока: 113 Мбайт (8%)

Аудио #2
Идентификатор: 3
Формат: AC-3
Формат/Информация: Audio Coding 3
Расширение режима: CM (complete main)
Идентификатор кодека: A_AC3
Продолжительность: 41 м.
Вид битрейта: Постоянный
Битрейт: 384 Кбит/сек
Канал(ы): 2 канала(ов)
Расположение каналов: Front: L R
Частота: 48,0 КГц
Битовая глубина: 16 бит
Метод сжатия: С потерями
Размер потока: 113 Мбайт (8%)



Второй сезон
























Голосуем за наш сайт здесь: и здесь: Если понравилась раздача, Жмём + Здесь
Поделиться:




реклама партнёра


Вернуться к началу
 Профиль Отправить личное сообщение  
 
   Похожие торренты   Автор   Торрент   Размер 
В этой теме нет новых непрочитанных сообщений. Салем / Salem / 3 сезон 1-04 серии из 13 [фантастика, триллер, драма, 2016] WEB-DL 720p, Mvo [LostFilm]

salma3

36 | 72

6.6 ГБ

В этой теме нет новых непрочитанных сообщений. Нация Z / Z Nation / 3 сезон 1-13 серии из 14 [Боевик, Драма, Ужасы, Фантастика,, 2016] WEB-DL 720p, Mvo [LostFilm]

salma3

24 | 162

18.57 ГБ

В этой теме нет новых непрочитанных сообщений. Стрела / Arrow / 2 сезон 1-23 серии из 23 [фантастика, боевик, драма, криминал, приключения, 2013-2014] WEB-DL 720p, Mvo [LostFilm]

salma3

12 | 3

32.92 ГБ

В этой теме нет новых непрочитанных сообщений. Вызов / Непокорная Земля / Defiance [3 сезон 1-13 серии из 13] (Майкл Нанкин) [фантастика, боевик, драма, 2015] WEB-DLRip 720p, Mvo [LostFilm]

Dracon

85 | 116

18.28 ГБ

В этой теме нет новых непрочитанных сообщений. Агенты Щ.И.Т / Agents of S.H.I.E.L.D / 2 сезон 1-22 серии из 22 [фантастика, боевик, драма, 2014] WEB-DLRip, Mvo [LostFilm]

salma3

29 | 12

10.74 ГБ

В этой теме нет новых непрочитанных сообщений. Салем / Salem / 3 сезон 1-04 серии из 13 [фантастика, триллер, драма, 2016] WEB-DLRip, Mvo [LostFilm]

salma3

91 | 203

1.97 ГБ

В этой теме нет новых непрочитанных сообщений. Хранилище 13 / Ангар 13 / Warehouse 13 / 5 сезон 1-6 серии из 6 [фантастика, драма, детектив, 2014] WEB-DLRip, Mvo [LostFilm]

salma3

2 | 3

2.91 ГБ


Начать новую тему Ответить на тему  [ 1 сообщение ] 




Для Мосгорсуда, Роскомнадзора и рекламодателей:: mosgorsud-torrent[собачка]yandex.ru