Торрент файл
скачать торрент магнет ссылка Добавлен: 22 янв 2012, 16:07
Размер: 350.17 МБ
Сидеров: 0
Личеров: 4
Автор

СообщениеДобавлено: 22 янв 2012, 16:07 

Не в сети
Супермодератор
Аватара пользователя
Дата регистрации:
11 апр 2010, 18:10
Спасибо: 5802 / 7
Сообщения: 56779
Жизнь на Марсе, 1 сезон 1 серия / Life on Mars (US)




Перевод: Профессиональный (многоголосый, закадровый), cубтитры: отсутствуют
Формат: WEB-DLRip, MKV, H.264/AVC, AC3

Страна: США
Режиссер: Майкл Кэтлман
Жанр: Драма, Детектив
Слоган: «Back in the nick of time»
Всего серий: 17
Продолжительность: 00:43:28
Год выпуска: 2008

В ролях: Джейсон О'Мара, Харви Кейтель, Майкл Империоли, Гретхен Мол, Крис Мицкевич, Джонатан Мерфи, Доминик Манчино, Джон Ченатьемпо, Том Стрэтфорд, Лиза Бонет и др.

Описание: Детектив из 21-ого века, чья подружка была похищена, попадает в автомобильную аварию. Он остается в живых, но странным образом попадает в прошлое - в 70-ые года, где также работает полицейским. Постепенно привыкнув к этой ситуации, он начинает вести расследование в отношении серийного убийцы, который, кажется, связан с похищением его подруги в будущем.
Попав в семидесятые, детектив Сэм Тайлер понимает, что работая здесь и сейчас полицейским, ему придется обойтись без всех тех электронных штучек и цифровых устройств, которые так помогали ему в 21-ом веке. В довершении ко всему, его сегодняшний босс - полицейский старой закалки, по имени Gene Hunt (Гениальный Охотник) делает все, чтобы осложнить жизнь новоявленного детектива. Более того, в моменты, когда это необходимо, босс может не задумываясь нарушить устав и правила, что является довольно диким для полицейского из 21-ого века.


Рейтинг:



Видео: 712x400 (1.78:1), 23.976 fps, MPEG-4 AVC, High@L4.1, ~933 kbps avg, 0.137 bit/pixel
Аудио: 48 kHz, AC3 Dolby Digital, 2/0 (L,R) ch, ~192.00 kbps

Озвучка:






Общее
Полное имя: D:\life0101.mkv
Формат: Matroska
Версия формата: Version 2
Размер файла: 350 Мбайт
Продолжительность: 43 м.
Общий поток: 1126 Кбит/сек
Дата кодирования: UTC 2012-01-14 10:48:34
Программа кодирования: mkvmerge v5.0.1 ('Es ist Sommer') built on Oct9 2011 11:55:43
Библиотека кодирования: libebml v1.2.2 + libmatroska v1.3.0

Видео
Идентификатор: 1
Формат: AVC
Формат/Информация: Advanced Video Codec
Профиль формата: High@L4.1
Параметр CABAC формата: Да
Параметр ReFrames формата: 9 кадров
Идентификатор кодека: V_MPEG4/ISO/AVC
Продолжительность: 43 м.
Битрейт: 933 Кбит/сек
Ширина: 712 пикселей
Высота: 400 пикселей
Соотношение сторон: 16:9
Частота кадров: 23,976 кадра/сек
Цветовое пространство: YUV
Субдискретизация насыщенности: 4:2:0
Битовая глубина: 8 бит
Тип развёртки: Прогрессивная
Бит/(Пиксели*Кадры): 0.137
Размер потока: 284 Мбайт (81%)
Заголовок: Season 1, Episode 1: Out Here in the Fields
Библиотека кодирования: x264 core 120 r2120kMod 0c7dab9
Настройки программы: cabac=1 / ref=9 / deblock=1:-2:-1 / analyse=0x3:0x133 / me=esa / subme=11 / psy=1 / fade_compensate=0.00 / psy_rd=1.07:0.17 / mixed_ref=1 / me_range=32 / chroma_me=1 / trellis=2 / 8x8dct=1 / cqm=0 / deadzone=21,11 / fast_pskip=0 / chroma_qp_offset=-3 / threads=12 / sliced_threads=0 / nr=0 / decimate=1 / interlaced=0 / bluray_compat=0 / constrained_intra=0 / bframes=7 / b_pyramid=2 / b_adapt=1 / b_bias=0 / direct=3 / weightb=1 / open_gop=0 / weightp=2 / keyint=250 / keyint_min=23 / scenecut=40 / intra_refresh=0 / rc=2pass / mbtree=0 / bitrate=933 / ratetol=1.0 / qcomp=0.80 / qpmin=0 / qpmax=69 / qpstep=4 / cplxblur=20.0 / qblur=0.5 / ip_ratio=1.40 / pb_ratio=1.30 / aq=3:0.70
Default: Да
Forced: Нет

Аудио
Идентификатор: 2
Формат: AC-3
Формат/Информация: Audio Coding 3
Расширение режима: CM (complete main)
Идентификатор кодека: A_AC3
Продолжительность: 43 м.
Вид битрейта: Постоянный
Битрейт: 192 Кбит/сек
Каналы: 2 канала
Расположение каналов: Front: L R
Частота: 48,0 КГц
Битовая глубина: 16 бит
Метод сжатия: С потерями
Размер потока: 59,7 Мбайт (17%)
Заголовок: Первый Канал
Язык: Russian
Default: Да
Forced: Нет



avs [info]: 712x400p 0:0 @ 24000/1001 fps (cfr)
x264 [info]: using cpu capabilities: MMX2 SSE2Fast SSSE3 FastShuffle SSE4.2 AVX
x264 [info]: profile High, level 4.1
x264 [info]: frame I:1194Avg QP:17.92size: 29578
x264 [info]: frame P:24730 Avg QP:21.11size:8149
x264 [info]: frame B:36612 Avg QP:23.77size:1837
x264 [info]: consecutive B-frames: 13.1% 27.4% 14.3% 22.1% 18.1%2.2%0.2%2.5%
x264 [info]: mb II16..4:9.8% 71.4% 18.8%
x264 [info]: mb PI16..4:1.6%6.4%1.0%P16..4: 34.7% 38.3%9.1%2.4%0.2%skip: 6.2%
x264 [info]: mb BI16..4:0.1%0.3%0.0%B16..8: 33.1% 14.0%1.7%direct: 2.4%skip:48.4%L0:35.7% L1:51.7% BI:12.6%
x264 [info]: 8x8 transform intra:70.8% inter:60.3%
x264 [info]: direct mvsspatial:97.3% temporal:2.7%
x264 [info]: coded y,uvDC,uvAC intra: 73.6% 77.6% 45.0% inter: 14.9% 14.9% 1.3%
x264 [info]: i16 v,h,dc,p: 30% 17%7% 46%
x264 [info]: i8 v,h,dc,ddl,ddr,vr,hd,vl,hu: 11% 11%8%8% 11% 12% 12% 12% 14%
x264 [info]: i4 v,h,dc,ddl,ddr,vr,hd,vl,hu: 14% 14%6%8% 12% 12% 12% 10% 13%
x264 [info]: i8c dc,h,v,p: 35% 27% 21% 17%
x264 [info]: Weighted P-Frames: Y:6.4% UV:3.2%
x264 [info]: ref P L0: 60.6% 10.0% 13.8%5.3%3.6%2.6%2.0%1.1%0.8%0.2%0.0%
x264 [info]: ref B L0: 84.0% 10.4%2.9%1.1%0.7%0.5%0.3%0.1%
x264 [info]: ref B L1: 94.8%5.2%
x264 [info]: kb/s:932.67

encoded 62536 frames, 5.86 fps, 932.67 kb/s





















































Внимание! Раздача ведётся путём добавления новых серий; при каждом добавлении создётся новый торрент. Чтобы начать докачку новой серии, пользователям необходимо сделать следующее:

(1) остановить скачивание,
(2) удалить старый торрент у себя из клиента (старые серии удалять не надо),
(3) скачать новый торрент и запустить его у себя в клиенте вместо старого, при этом указать клиенту путь в старую папку куда и должно происходить скачивание новых серий.


Ваш клиент при этом должен произвести хеширование (проверку) старой папки (если не производит сам - помогите ему сделать это), и будет докачивать только те серии которых у вас ещё нет. Старые серии при этом не удаляются, а продолжают раздаваться!
Eсли вы уже удалили старые серии, то предотвратить повторную закачку старых серий можно, отжав галочку в соответсвующих местах при запуске нового торрента. По возможности, желательно не удалять старые серии как можно дольше чтобы релизёр не столько продолжал раздавать старые серии, а смог сконцентрироваться на новых.


Поделиться:




реклама партнёра


Вернуться к началу
 Профиль Отправить личное сообщение  
 
   Похожие торренты   Автор   Торрент   Размер 
В этой теме нет новых непрочитанных сообщений. Форс-Мажоры / Suits [S01-04] (Кевин Брэй, Майкл Смит, Антон Кроппер) [драма, комедия, 2011-2015] WEB-DLRip [Первый канал, NewStudio]

Dracon

408 | 462

34.85 ГБ

В этой теме нет новых непрочитанных сообщений. Водолей / Aquarius [01х01-13 из 13] (Джонас Пейт, Майкл Цинберг, Джон Эмиел) [Драма, детектив, 2015] HDTVRip, Mvo [Первый канал]

Dracon

177 | 82

7.8 ГБ

В этой теме нет новых непрочитанных сообщений. Водолей / Aquarius [01х01-13 из 13] (Джонас Пейт, Майкл Цинберг, Джон Эмиел) [Драма, детектив, 2015] HDTV 1080p, Mvo [Первый канал]

Dracon

41 | 31

22.49 ГБ

В этой теме нет новых непрочитанных сообщений. Код 100 / The Hundred Code [S01] (Роберт Мореско, Андреас Ёманн) [детектив, криминал, драма, 2015] WEB-DLRip [Первый канал]

Dracon

69 | 12

5.9 ГБ

В этой теме нет новых непрочитанных сообщений. Зверинец  / Zoo [Season 1, Episodes 1-13 of 13] (Стивен А. Эделсон, Брэд Андерсон, Майкл Кэтлман) [Триллер, драма, экранизация, 2015] WEB-DLRip [BaibaKo]

Dracon

280 | 237

7.19 ГБ

В этой теме нет новых непрочитанных сообщений. Зверинец / Zoo [Season 1, Episodes 1-13 of 13] (Стивен А. Эделсон, Брэд Андерсон, Майкл Кэтлман) [Триллер, драма, экранизация, 2015] WEB-DLRip [NewStudio]

Dracon

183 | 87

6.95 ГБ

В этой теме нет новых непрочитанных сообщений. Последний корабль / The Last Ship [01х01-10 из 10] (Майкл Кэтлман, Джек Бендер, Пол Холахан) [2014, фантастика, боевик, триллер, драма, WEB-DLRip | LostFilm]

Nickolas3435

669 | 172

5.93 ГБ


Начать новую тему Ответить на тему  [ 1 сообщение ] 




Для Мосгорсуда, Роскомнадзора и рекламодателей:: mosgorsud-torrent[собачка]yandex.ru