Торрент файл
скачать торрент магнет ссылка Добавлен: 22 янв 2012, 16:06
Размер: 6.67 ГБ
Сидеров: 124
Личеров: 25
Автор

СообщениеДобавлено: 22 янв 2012, 16:06 

Не в сети
Супермодератор
Аватара пользователя
Дата регистрации:
11 апр 2010, 18:10
Спасибо: 5801 / 7
Сообщения: 56779
Шерлок, 1-2 серии из 3 / Sherlock

Перевод: Профессиональный (полное дублирование), cубтитры: отсутствуют
Формат: HDTV, MKV, H.264, AC3
Страна: Великобритания
Режиссер: Пол МакГиган
Жанр: Детектив
Всего серий: 3
Продолжительность: 2 х 01:29
Год выпуска: 2011
В ролях: Бенедикт Камбербэтч, Мартин Фриман, Руперт Грейвз, Уна Стаббс, Лу Брили, Зои Телфорд, Питер Брук, Джемма Чан, Виннет Робинсон, Джини Спар
Описание: События разворачиваются в наши дни. Он прошел Афганистан, остался инвалидом. По возвращению в родные края встречается с загадочным, но своеобразным гениальным человеком. Тот в поиске соседа по квартире. Лондон, 2010 год. Происходят необъяснимые убийства. Скотланд-Ярд без понятия, за что хвататься. Существует лишь один человек, который в силах разрешить проблемы и найти ответы на сложные вопросы.
Рейтинг на :

Видео: 1440x1080, (16/9), 25,000 fps, V_MPEG4/ISO/AVC, High@L4.1, ~5000kbps avg, 0.129bit/pixel
Аудио:
Russian:48 kHz, AC3 Dolby Digital, 2/0 (L,R) ch, ~192.00 kbps avg
English:48 kHz, AC3 Dolby Digital, 2/0 (L,R) ch, ~192.00 kbps avg

Релиз от:
Озвучивание: "Первый Канал"
Общее
Уникальный идентификатор: 232019820065913516609321804324009414478 (0xAE8D645495259AC89471910EEC280F4E)
Полное имя: D:\Раздачи_для_[tfile.ru]\Sherlock_s02_[tfile.ru]\Sherlock_s02e01_[tfile.ru].mkv
Формат: Matroska
Версия формата: Version 2
Размер файла: 3,35 Гбайт
Продолжительность: 1 ч. 29 м.
Общий поток: 5365 Кбит/сек
Дата кодирования: UTC 2012-01-02 14:43:41
Программа кодирования: mkvmerge v4.5.0 ('Speed of Light') сборка от Feb1 2011 02:10:32
Библиотека кодирования: libebml v1.2.0 + libmatroska v1.1.0

Видео
Идентификатор: 1
Формат: AVC
Формат/Информация: Advanced Video Codec
Профиль формата: High@L4.1
Параметр CABAC формата: Да
Параметр ReFrames формата: 4 кадра
Идентификатор кодека: V_MPEG4/ISO/AVC
Продолжительность: 1 ч. 29 м.
Битрейт: 5000 Кбит/сек
Ширина: 1440 пикселей
Высота: 1080 пикселей
Соотношение сторон: 16:9
Соотношение сторон в оригинале: 4:3
Частота кадров: 25,000 кадров/сек
Цветовое пространство: YUV
Субдискретизация насыщенности: 4:2:0
Битовая глубина: 8 бит
Тип развёртки: Прогрессивная
Бит/(Пиксели*Кадры): 0.129
Размер потока: 3,05 Гбайт (91%)
Библиотека кодирования: x264 core 116 r2074 2641b9e
Настройки программы: cabac=1 / ref=2 / deblock=1:0:0 / analyse=0x3:0x113 / me=hex / subme=4 / psy=1 / psy_rd=1.00:0.00 / mixed_ref=1 / me_range=16 / chroma_me=1 / trellis=0 / 8x8dct=1 / cqm=0 / deadzone=21,11 / fast_pskip=1 / chroma_qp_offset=0 / threads=7 / sliced_threads=0 / nr=0 / decimate=1 / interlaced=0 / bluray_compat=0 / constrained_intra=0 / bframes=3 / b_pyramid=2 / b_adapt=1 / b_bias=0 / direct=3 / weightb=1 / open_gop=0 / weightp=2 / keyint=250 / keyint_min=25 / scenecut=40 / intra_refresh=0 / rc_lookahead=40 / rc=abr / mbtree=1 / bitrate=5000 / ratetol=1.0 / qcomp=0.60 / qpmin=10 / qpmax=51 / qpstep=4 / vbv_maxrate=50000 / vbv_bufsize=50000 / nal_hrd=none / ip_ratio=1.40 / aq=1:1.00
Default: Да
Forced: Нет

Аудио #1
Идентификатор: 2
Формат: AC-3
Формат/Информация: Audio Coding 3
Расширение режима: CM (complete main)
Идентификатор кодека: A_AC3
Продолжительность: 1 ч. 29 м.
Вид битрейта: Постоянный
Битрейт: 192 Кбит/сек
Каналы: 2 канала
Расположение каналов: Front: L R
Частота: 48,0 КГц
Битовая глубина: 16 бит
Метод сжатия: С потерями
Размер потока: 123 Мбайт (4%)
Язык: Russian
Default: Да
Forced: Нет

Аудио #2
Идентификатор: 3
Формат: AC-3
Формат/Информация: Audio Coding 3
Расширение режима: CM (complete main)
Идентификатор кодека: A_AC3
Продолжительность: 1 ч. 29 м.
Вид битрейта: Постоянный
Битрейт: 192 Кбит/сек
Каналы: 2 канала
Расположение каналов: Front: L R
Частота: 48,0 КГц
Битовая глубина: 16 бит
Метод сжатия: С потерями
Размер потока: 123 Мбайт (4%)
Язык: English
Default: Нет
Forced: Нет








слоган «A new sleuth for the 21st Century»
сценарий Артур Конан Дойл, Стивен Моффат, Марк Гатисс
продюсер Сью Верту, Марк Гатисс, Стивен Моффат, ...
оператор Стив Лос, Фабиан Вагнер
композитор Дэвид Арнольд, Майкл Прайс
художникЭрвел Джонс, Дэфидд Шёмер, Сара Артур
монтажЧарли Филлипс


Внимание! Раздача ведётся путём добавления новых серий; при каждом добавлении создётся новый торрент. Чтобы начать докачку новой серии, пользователям необходимо сделать следующее:
(1) остановить скачивание,
(2) удалить старый торрент у себя из клиента (старые серии удалять не надо),
(3) скачать новый торрент и запустить его у себя в клиенте вместо старого, при этом указать клиенту путь в старую папку куда и должно происходить скачивание новых серий.

Ваш клиент при этом должен произвести хеширование (проверку) старой папки (если не производит сам - помогите ему сделать это), и будет докачивать только те серии которых у вас ещё нет. Старые серии при этом не удаляются, а продолжают раздаваться!

Eсли вы уже удалили старые серии, то предотвратить повторную закачку старых серий можно, отжав галочку в соответсвующих местах при запуске нового торрента. По возможности, желательно не удалять старые серии как можно дольше чтобы релизёр не столько продолжал раздавать старые серии, а смог сконцентрироваться на новых.

Голосуем за наш сайт здесь: и здесь: Если понравилась раздача, Жмём + Здесь

Внимание, добавлена 2-ая серия 16.01.2012 перезакачайте торрент-файл!
Поделиться:




реклама партнёра


Вернуться к началу
 Профиль Отправить личное сообщение  
 
   Похожие торренты   Автор   Торрент   Размер 
В этой теме нет новых непрочитанных сообщений. Шерлок : Безобразная невеста / Sherlock: The Abominable Bride (Дуглас МакКиннон) [триллер, драма, криминал, детектив, 2015] HDTV 1080p, Dub+Sub [Первый канал]

Dracon

2654 | 43

5.22 ГБ

В этой теме нет новых непрочитанных сообщений. Шерлок / Sherlock [03x01-03 из 03] [Драма, детектив, 2013] HDTV 1080i, Dub [Первый канал]

RusTan

453 | 1158

13.57 ГБ

В этой теме нет новых непрочитанных сообщений. Шерлок / Sherlock [03x01-02 из 03] [Драма, детектив, 2013] HDTV 1080i, Dub [Первый канал]

Ανδρέας

832 | 950

7.73 ГБ

В этой теме нет новых непрочитанных сообщений. Шерлок: Безобразная невеста / Sherlock: The Abominable Bride (Дуглас МакКиннон) [триллер, драма, криминал, детектив, 2015] WEBRip 1080p, Dub+Sub [Первый канал]

Dracon

8420 | 147

3.48 ГБ

В этой теме нет новых непрочитанных сообщений. Шерлок / Sherlock [03x01-02 из 03] [Драма, детектив, 2014] HDTVRip, Dub [Первый канал]

Dracon

2392 | 1944

1.77 ГБ

В этой теме нет новых непрочитанных сообщений. Шерлок: Безобразная невеста / Sherlock: The Abominable Bride (Дуглас МакКиннон) [триллер, драма, криминал, детектив, 2015] WEBRip, Dub+Sub [Первый канал]

Dracon

2912 | 38

1.1 ГБ

В этой теме нет новых непрочитанных сообщений. Шерлок: Безобразная невеста / Sherlock: The Abominable Bride (Дуглас МакКиннон) [триллер, драма, криминал, детектив, 2015] WEBRip 720p, Dub+Sub [Первый канал]

Dracon

6110 | 250

2.48 ГБ


Начать новую тему Ответить на тему  [ 1 сообщение ] 




Для Мосгорсуда, Роскомнадзора и рекламодателей:: mosgorsud-torrent[собачка]yandex.ru