Торрент файл
скачать торрент магнет ссылка Добавлен: 22 янв 2012, 16:05
Размер: 5.06 ГБ
Сидеров: 861
Личеров: 170
Автор

СообщениеДобавлено: 22 янв 2012, 16:05 

Не в сети
Супермодератор
Аватара пользователя
Дата регистрации:
11 апр 2010, 18:10
Спасибо: 5801 / 7
Сообщения: 56779
Шерлок, 2 сезон 1-3 серии из 3 / Sherlock

Перевод: Профессиональный (полное дублирование), cубтитры: отсутствуют
Формат: HDTV, MKV, H.264, AC3
Страна: Великобритания
Режиссер: Пол МакГиган
Жанр: Детектив
Всего серий: 3
Продолжительность: 3 х 01:29
Год выпуска: 2011
В ролях: Benedict Cumberbatch, Martin Freeman, Una Stubbs, Rupert Graves и др.
Описание: События разворачиваются в наши дни. Он прошел Афганистан, остался инвалидом. По возвращению в родные края встречается с загадочным, но своеобразным гениальным человеком. Тот в поиске соседа по квартире. Лондон, 2010 год. Происходят необъяснимые убийства. Скотланд-Ярд без понятия, за что хвататься. Существует лишь один человек, который в силах разрешить проблемы и найти ответы на сложные вопросы.
Рейтинг на :
Видео: 1280х720, (16/9), 25,000 fps, V_MPEG4/ISO/AVC, High@L4.1, ~1855 kbps avg, 0.080 bit/pixel
Аудио #1ENG: 48, 0 kHz, AC3 Dolby Digital, 2/0 (L,R) ch, ~384 kbps
Аудио #2RUS: 48, 0 kHz, AC3 Dolby Digital, 2/0 (L,R) ch, ~192 kbps

Релиз от:
Общее
Уникальный идентификатор: 225545258889762652581043686295904732674 (0xA9AE6FD1899114E3A8CD2063AC684602)
Полное имя: D:\Раздачи_для_[tfile.ru]\Sherlock_s02_[LostFilm]_[tfile.ru]\Sherlock_s02e01_[tfile.ru].mkv
Формат: Matroska
Версия формата: Version 2
Размер файла: 1,55 Гбайт
Продолжительность: 1 ч. 29 м.
Общий поток: 2480 Кбит/сек
Дата кодирования: UTC 2012-01-02 18:16:52
Программа кодирования: mkvmerge v4.3.0 ('Escape from the Island') сборка от Sep5 2010 10:30:51
Библиотека кодирования: libebml v1.0.0 + libmatroska v1.0.0

Видео
Идентификатор: 1
Формат: AVC
Формат/Информация: Advanced Video Codec
Профиль формата: High@L4.1
Параметр CABAC формата: Да
Параметр ReFrames формата: 5 кадров
Идентификатор кодека: V_MPEG4/ISO/AVC
Продолжительность: 1 ч. 29 м.
Битрейт: 1855 Кбит/сек
Ширина: 1280 пикселей
Высота: 720 пикселей
Соотношение сторон: 16:9
Частота кадров: 25,000 кадров/сек
Цветовое пространство: YUV
Субдискретизация насыщенности: 4:2:0
Битовая глубина: 8 бит
Тип развёртки: Прогрессивная
Бит/(Пиксели*Кадры): 0.080
Размер потока: 1,16 Гбайт (75%)
Библиотека кодирования: x264 core 119 r2106 07efeb4
Настройки программы: cabac=1 / ref=5 / deblock=1:0:0 / analyse=0x3:0x113 / me=umh / subme=8 / psy=1 / psy_rd=1.00:0.00 / mixed_ref=1 / me_range=16 / chroma_me=1 / trellis=1 / 8x8dct=1 / cqm=0 / deadzone=21,11 / fast_pskip=1 / chroma_qp_offset=-2 / threads=18 / sliced_threads=0 / nr=0 / decimate=1 / interlaced=0 / bluray_compat=0 / constrained_intra=0 / bframes=3 / b_pyramid=2 / b_adapt=2 / b_bias=0 / direct=3 / weightb=1 / open_gop=0 / weightp=2 / keyint=250 / keyint_min=25 / scenecut=40 / intra_refresh=0 / rc_lookahead=50 / rc=crf / mbtree=1 / crf=19.0 / qcomp=0.60 / qpmin=0 / qpmax=69 / qpstep=4 / ip_ratio=1.40 / aq=1:1.00
Язык: English
Default: Да
Forced: Нет

Аудио #1
Идентификатор: 2
Формат: AC-3
Формат/Информация: Audio Coding 3
Расширение режима: CM (complete main)
Идентификатор кодека: A_AC3
Продолжительность: 1 ч. 29 м.
Вид битрейта: Постоянный
Битрейт: 384 Кбит/сек
Каналы: 2 канала
Расположение каналов: Front: L R
Частота: 48,0 КГц
Битовая глубина: 16 бит
Метод сжатия: С потерями
Размер потока: 245 Мбайт (15%)
Default: Да
Forced: Нет

Аудио #2
Идентификатор: 3
Формат: AC-3
Формат/Информация: Audio Coding 3
Расширение режима: CM (complete main)
Идентификатор кодека: A_AC3
Продолжительность: 1 ч. 29 м.
Вид битрейта: Постоянный
Битрейт: 192 Кбит/сек
Каналы: 2 канала
Расположение каналов: Front: L R
Частота: 48,0 КГц
Битовая глубина: 16 бит
Метод сжатия: С потерями
Размер потока: 123 Мбайт (8%)
Default: Нет
Forced: Нет







слоган «A new sleuth for the 21st Century»
сценарий Артур Конан Дойл, Стивен Моффат, Марк Гатисс
продюсер Сью Верту, Марк Гатисс, Стивен Моффат, ...
оператор Стив Лос, Фабиан Вагнер
композитор Дэвид Арнольд, Майкл Прайс
художникЭрвел Джонс, Дэфидд Шёмер, Сара Артур
монтажЧарли Филлипс


Голосуем за наш сайт здесь: и здесь: Если понравилась раздача, Жмём + Здесь

Внимание, добавлена 3-тья серия, 17.01.2012, перезакачайте торрент-файл!!!
Поделиться:




реклама партнёра


Вернуться к началу
 Профиль Отправить личное сообщение  
 
   Похожие торренты   Автор   Торрент   Размер 
В этой теме нет новых непрочитанных сообщений. Шерлок / Sherlock [03x01-02 из 03] [Драма, детектив, 2013] HDTV 1080i, Dub [Первый канал]

Ανδρέας

832 | 950

7.73 ГБ

В этой теме нет новых непрочитанных сообщений. Шерлок / Sherlock [03x01-03 из 03] [Драма, детектив, 2013] HDTV 1080i, Dub [Первый канал]

RusTan

453 | 1158

13.57 ГБ

В этой теме нет новых непрочитанных сообщений. Шерлок : Безобразная невеста / Sherlock: The Abominable Bride (Дуглас МакКиннон) [триллер, драма, криминал, детектив, 2015] HDTV 1080p, Dub+Sub [Первый канал]

Dracon

2654 | 43

5.22 ГБ

В этой теме нет новых непрочитанных сообщений. Шерлок: Безобразная невеста / Sherlock: The Abominable Bride (Дуглас МакКиннон) [триллер, драма, криминал, детектив, 2015] WEBRip 720p, Dub+Sub [Первый канал]

Dracon

6110 | 250

2.48 ГБ

В этой теме нет новых непрочитанных сообщений. Шерлок / Sherlock [03x01-02 из 03] [Драма, детектив, 2014] HDTVRip, Dub [Первый канал]

Dracon

2392 | 1944

1.77 ГБ

В этой теме нет новых непрочитанных сообщений. Шерлок: Безобразная невеста / Sherlock: The Abominable Bride (Дуглас МакКиннон) [триллер, драма, криминал, детектив, 2015] WEBRip, Dub+Sub [Первый канал]

Dracon

2912 | 38

1.1 ГБ

В этой теме нет новых непрочитанных сообщений. Шерлок: Безобразная невеста / Sherlock: The Abominable Bride (Дуглас МакКиннон) [триллер, драма, криминал, детектив, 2015] WEBRip 1080p, Dub+Sub [Первый канал]

Dracon

8420 | 147

3.48 ГБ


Начать новую тему Ответить на тему  [ 1 сообщение ] 




Для Мосгорсуда, Роскомнадзора и рекламодателей:: mosgorsud-torrent[собачка]yandex.ru