Торрент файл
скачать торрент магнет ссылка Добавлен: 22 янв 2012, 16:01
Размер: 3.59 ГБ
Сидеров: 250
Личеров: 49
Автор

СообщениеДобавлено: 22 янв 2012, 16:01 

Не в сети
Супермодератор
Аватара пользователя
Дата регистрации:
11 апр 2010, 18:10
Спасибо: 5801 / 7
Сообщения: 56779
Шерлок, 2 сезон 1-3 серии из 3 / Sherlock



Перевод: Профессиональный (полное дублирование), cубтитры: отсутствуют
Формат: HDTVRip, MKV, H.264/AVC, AC3

Страна: Великобритания
Режиссер: Пол МакГиган, Тоби Хайнс
Жанр: Детектив, Драма
Всего серий: 3
Продолжительность: 3 x 01:29
Год выпуска: 2012

В ролях: Бенедикт Камбербатч, Мартин Фриман, Руперт Грейвз, Уна Стаббс, Лу Брили, Зои Телфорд, Питер Брук, Джемма Чан, Виннет Робинсон, Джини Спар

Описание: События разворачиваются в наши дни. Он прошел Афганистан, остался инвалидом. По возвращению в родные края встречается с загадочным, но своеобразным гениальным человеком. Тот в поиске соседа по квартире. Лондон, 2010 год. Происходят необъяснимые убийства. Скотланд-Ярд без понятия, за что хвататься. Существует лишь один человек, который в силах разрешить проблемы и найти ответы на сложные вопросы.

Рейтинг:



Видео: 1024x576 (1.78:1), MPEG-4 AVC, High@L4.1, 25.000 fps, 1546 kbps avg, 0.105 bit/pixel

Аудио: Русский: 48 kHz, AC3, 2 ch (L,R), 192.00 kbps avg | Дубляж
Аудио: Английский: 48 kHz, AC3, 2 ch (L,R), 192.00 kbps avg | Оригинал

Озвучка:






Общее
Полное имя: D:\***\Sherlock_S02_[tfile.ru]\Sherlock_s02e01_[tfile.ru].mkv
Формат: Matroska
Версия формата: Version 2
Размер файла: 1,21 Гбайт
Продолжительность: 1 ч. 29 м.
Общий поток: 1932 Кбит/сек
Дата кодирования: UTC 2012-01-06 20:36:53
Программа кодирования: mkvmerge v5.0.1 ('Es ist Sommer') built on Oct9 2011 11:55:43
Библиотека кодирования: libebml v1.2.2 + libmatroska v1.3.0

Видео
Идентификатор: 1
Формат: AVC
Формат/Информация: Advanced Video Codec
Профиль формата: High@L4.1
Параметр CABAC формата: Да
Параметр ReFrames формата: 10 кадров
Идентификатор кодека: V_MPEG4/ISO/AVC
Продолжительность: 1 ч. 29 м.
Битрейт: 1546 Кбит/сек
Ширина: 1024 пикселя
Высота: 576 пикселей
Соотношение сторон: 16:9
Частота кадров: 25,000 кадров/сек
Цветовое пространство: YUV
Субдискретизация насыщенности: 4:2:0
Битовая глубина: 8 бит
Тип развёртки: Прогрессивная
Бит/(Пиксели*Кадры): 0.105
Размер потока: 966 Мбайт (78%)
Библиотека кодирования: x264 core 120 r2120kMod 0c7dab9
Настройки программы: cabac=1 / ref=10 / deblock=1:-2:-1 / analyse=0x3:0x133 / me=umh / subme=11 / psy=1 / fade_compensate=0.00 / psy_rd=1.00:0.15 / mixed_ref=1 / me_range=32 / chroma_me=1 / trellis=2 / 8x8dct=1 / cqm=0 / deadzone=21,11 / fast_pskip=0 / chroma_qp_offset=-3 / threads=12 / sliced_threads=0 / nr=0 / decimate=1 / interlaced=0 / bluray_compat=0 / constrained_intra=0 / bframes=8 / b_pyramid=2 / b_adapt=1 / b_bias=0 / direct=3 / weightb=1 / open_gop=0 / weightp=2 / keyint=250 / keyint_min=25 / scenecut=40 / intra_refresh=0 / rc=2pass / mbtree=0 / bitrate=1546 / ratetol=1.0 / qcomp=0.70 / qpmin=0 / qpmax=69 / qpstep=4 / cplxblur=20.0 / qblur=0.5 / ip_ratio=1.40 / pb_ratio=1.20 / aq=3:0.80
Default: Да
Forced: Нет

Аудио #1
Идентификатор: 2
Формат: AC-3
Формат/Информация: Audio Coding 3
Расширение режима: CM (complete main)
Идентификатор кодека: A_AC3
Продолжительность: 1 ч. 29 м.
Вид битрейта: Постоянный
Битрейт: 192 Кбит/сек
Каналы: 2 канала
Расположение каналов: Front: L R
Частота: 48,0 КГц
Битовая глубина: 16 бит
Метод сжатия: С потерями
Размер потока: 123 Мбайт (10%)
Заголовок: Первый Канал
Язык: Russian
Default: Да
Forced: Нет

Аудио #2
Идентификатор: 3
Формат: AC-3
Формат/Информация: Audio Coding 3
Расширение режима: CM (complete main)
Идентификатор кодека: A_AC3
Продолжительность: 1 ч. 29 м.
Вид битрейта: Постоянный
Битрейт: 192 Кбит/сек
Каналы: 2 канала
Расположение каналов: Front: L R
Частота: 48,0 КГц
Битовая глубина: 16 бит
Метод сжатия: С потерями
Размер потока: 123 Мбайт (10%)
Заголовок: Original
Язык: English
Default: Нет
Forced: Нет



avs [info]: 1024x576p 0:0 @ 25/1 fps (cfr)
x264 [info]: using cpu capabilities: MMX2 SSE2Fast SSSE3 FastShuffle SSE4.2 AVX
x264 [info]: profile High, level 4.1
x264 [info]: frame I:1976Avg QP:14.95size: 54334
x264 [info]: frame P:48205 Avg QP:17.57size: 13392
x264 [info]: frame B:84069 Avg QP:19.49size:3387
x264 [info]: consecutive B-frames: 12.8% 21.5%7.6% 11.5% 19.6% 25.9%0.6%0.0%0.4%
x264 [info]: mb II16..4: 10.3% 71.0% 18.7%
x264 [info]: mb PI16..4:3.1%9.0%1.2%P16..4: 33.1% 33.7%7.4%1.6%0.1%skip:10.8%
x264 [info]: mb BI16..4:0.2%0.4%0.1%B16..8: 27.7% 13.6%1.8%direct: 3.2%skip:53.0%L0:36.5% L1:52.0% BI:11.5%
x264 [info]: 8x8 transform intra:67.6% inter:56.5%
x264 [info]: direct mvsspatial:95.9% temporal:4.1%
x264 [info]: coded y,uvDC,uvAC intra: 63.4% 70.9% 45.3% inter: 10.8% 15.0% 1.5%
x264 [info]: i16 v,h,dc,p: 34% 18%5% 43%
x264 [info]: i8 v,h,dc,ddl,ddr,vr,hd,vl,hu: 14% 11% 13%7%9% 11% 10% 11% 13%
x264 [info]: i4 v,h,dc,ddl,ddr,vr,hd,vl,hu: 18% 13% 13%6% 10% 10% 10%8% 10%
x264 [info]: i8c dc,h,v,p: 38% 30% 20% 12%
x264 [info]: Weighted P-Frames: Y:5.4% UV:2.0%
x264 [info]: ref P L0: 61.0%8.6% 13.4%5.4%3.7%2.6%2.2%1.2%1.0%0.8%0.2%0.0%
x264 [info]: ref B L0: 83.4% 11.0%2.7%1.1%0.7%0.5%0.4%0.2%0.1%
x264 [info]: ref B L1: 94.9%5.1%
x264 [info]: kb/s:1545.86












1 серия

















2 серия

















3 серия















Поделиться:




реклама партнёра


Вернуться к началу
 Профиль Отправить личное сообщение  
 
   Похожие торренты   Автор   Торрент   Размер 
В этой теме нет новых непрочитанных сообщений. Шерлок / Sherlock [03x01-02 из 03] [Драма, детектив, 2014] HDTVRip, Dub [Первый канал]

Dracon

2392 | 1944

1.77 ГБ

В этой теме нет новых непрочитанных сообщений. Шерлок / Sherlock [03x01-02 из 03] [Драма, детектив, 2013] HDTV 1080i, Dub [Первый канал]

Ανδρέας

832 | 950

7.73 ГБ

В этой теме нет новых непрочитанных сообщений. Шерлок / Sherlock [03x01-03 из 03] [Драма, детектив, 2013] HDTV 1080i, Dub [Первый канал]

RusTan

453 | 1158

13.57 ГБ

В этой теме нет новых непрочитанных сообщений. Шерлок / Sherlock [03x01-03 из 03] (2014) HDTVRip |dub | Первый канал

RusTan

3360 | 4088

2.66 ГБ

В этой теме нет новых непрочитанных сообщений. Шерлок: Безобразная невеста / Sherlock: The Abominable Bride (Дуглас МакКиннон) [триллер, драма, криминал, детектив, 2015] WEBRip, Dub+Sub [Первый канал]

Dracon

2912 | 38

1.1 ГБ

В этой теме нет новых непрочитанных сообщений. Шерлок: Безобразная невеста / Sherlock: The Abominable Bride (Дуглас МакКиннон) [триллер, драма, криминал, детектив, 2015] WEBRip 720p, Dub+Sub [Первый канал]

Dracon

6110 | 250

2.48 ГБ

В этой теме нет новых непрочитанных сообщений. Шерлок: Безобразная невеста / Sherlock: The Abominable Bride (Дуглас МакКиннон) [триллер, драма, криминал, детектив, 2015] WEBRip 1080p, Dub+Sub [Первый канал]

Dracon

8420 | 147

3.48 ГБ


Начать новую тему Ответить на тему  [ 1 сообщение ] 




Для Мосгорсуда, Роскомнадзора и рекламодателей:: mosgorsud-torrent[собачка]yandex.ru