Торрент файл
скачать торрент магнет ссылка Добавлен: 08 янв 2015, 21:49
Размер: 1.6 ГБ
Сидеров: 2713
Личеров: 1183
Статус: (Dievas)
Автор

СообщениеДобавлено: 08 янв 2015, 21:49 

Не в сети
Модератор XXX Pron
Аватара пользователя
Дата регистрации:
30 июн 2012, 06:48
Возраст: 47
Спасибо: 1096 / 6
Сообщения: 2938
Откуда: Lithuania
Студия: Private
Страна: USA
Год выпуска: 2013 г.
Перевод: Отсутствует
Продолжительность: 02:27:51

Режиссер: Omar Galanti & Salvo Visalli

Жанр: Anal, Gonzo, Dogging, Hardcore
Оригинальный аудиопоток: английский[/size]

В ролях:
Sandra, Nisha, Erika Bellucci, Milana Fox, Lolita Petrova

Оригинальное описание:
Private kicks off the new generation of the notorious Castings
line! In this first episode, Italian stallion Omar Galanti is on the
lookout for new Russian talent. Omar is an anal fanatic, so no
doubt all the girls will get their backsides pummeled. Nothing is
sexier than reality, and you really do not want to miss out on
Erika Bellucci, Milana Fox, Nisha, and Sandra's first scenes in porn.


Контейнер: MP4
Аудио кодек: AAC
Видео кодек: АVC
Cубтитры: отсутствуют
Качество видео: DVDRip
Аудио: Advanced Audio | 48.0 KHz | 2 ch | 158.0 Kbps
Видео: Adv. Video | 704x384 | 6210 Kbps | 23.97 fps | 0.175 bit/pixel

General
Complete name : Private Castings - New Generation 01_[pirat.ca].mp4
Format : MPEG-4
Format profile : Base Media
Codec ID : isom
File size : 1.60 GiB
Duration : 2h 27mn
Overall bit rate : 1 554 Kbps
Video
ID : 1
Format : AVC
Format/Info : Advanced Video Codec
Format profile : High@L3.1
Format settings, CABAC : Yes
Format settings, ReFrames : 5 frames
Codec ID : avc1
Codec ID/Info : Advanced Video Coding
Duration : 2h 27mn
Bit rate mode : Variable
Bit rate : 1 418 Kbps
Maximum bit rate : 6 210 Kbps
Width : 704 pixels
Height : 384 pixels
Display aspect ratio : 16:9
Frame rate mode : Constant
Frame rate : 29.970 fps
Resolution : 8 bits
Colorimetry : 4:2:0
Scan type : Progressive
Bits/(Pixel*Frame) : 0.175
Stream size : 1.46 GiB
Audio
ID : 2
Format : AAC
Format/Info : Advanced Audio Codec
Format version : Version 4
Format profile : LC
Format settings, SBR : No
Codec ID : 40
Duration : 2h 27mn
Bit rate mode : Variable
Bit rate : 132.3 Kbps
Maximum bit rate : 158 Kbps
Channel(s) : 2 channels
Channel positions : L R
Sampling rate : 48.0 KHz
Stream size : 138 MiB (8%)
Language : English






реклама партнёра


Вернуться к началу
 Профиль Отправить личное сообщение  
 
   Похожие торренты   Автор   Торрент   Размер 
В этой теме нет новых непрочитанных сообщений. Private Specials 72: Italian Putanas / Private Specials 72: Итальянские Проститутки (Omar Galanti / Private) [2013 г., Gonzo, Anal, DP, 540p, WEB-DL] (Split Scenes)

salma3

23 | 8

3.03 ГБ

В этой теме нет новых непрочитанных сообщений. Private Specials 99: Extreme Soviet Sluts 4 / Экстремальные Советские Шлюхи 4 (Salvo Visalli / Private) (Liona Levi, Victoria Popova, Sabrina Moor, Aghora) [2014 г., Anal, Hardcore, Gonzo, Russian Girls, WEB-DL 404p][Split Scenes]

friizze

23 | 12

1.82 ГБ

В этой теме нет новых непрочитанных сообщений. Private Special 107: 5 Russian Teens Take It Up The Ass / 5 русских девчонок дающих в попку (Salvo Visalli / Private) (Alice Smack, Anna Taylor, Carol Miller, Jay Dee, Anita Sparkle) [2015 г., Anal, Gonzo, Teens, WEB-DL 404p]

friizze

34 | 5

1.21 ГБ

В этой теме нет новых непрочитанных сообщений. Best By Private 248: Best Of Violette Pink / Лучшее от Виолет Пинк (Private) [2015 г., All Sex, Big Tits, Hardcore, Foreign, Anal, Gonzo, Star showcase, Threesome, DVDRip]

max77777

7 | 1

1.05 ГБ

В этой теме нет новых непрочитанных сообщений. Private Specials 161: Anal Innocence / Private Specials 161: Анал Невинных (Xavi Rocka, Private) [2017 г., 18+ Teens, Hardcore, Anal, All Sex, DVDRip]

salma3

15 | 4

1.29 ГБ

В этой теме нет новых непрочитанных сообщений. Private Specials 153 : Share My Wife / Private Specials 153 : Моя Доступная Жена (Private) [2017 г., Gonzo, Big Ass, Big Tits,MILFs, Anal, DP, Threesome, Fetish, DVDRip]

salma3

6 | 1

994.95 МБ

В этой теме нет новых непрочитанных сообщений. Private Gold 154: Private Sex School / Частная секс школа (Frank Thring, Private) [2013 г., Anal, DP, Big Boobs, Facial Cumshot, Group, Threesome, 540p, WEB-DL](Split Scenes)

salma3

38 | 13

2.53 ГБ


Начать новую тему Ответить на тему  [ 1 сообщение ] 




Для Мосгорсуда, Роскомнадзора и рекламодателей:: mosgorsud-torrent[собачка]yandex.ru