Торрент файл
скачать торрент магнет ссылка Добавлен: 02 ноя 2011, 07:32
Размер: 2.19 ГБ
Сидеров: 11
Личеров: 7
Автор

СообщениеДобавлено: 02 ноя 2011, 07:32 

Не в сети
Супермодератор
Аватара пользователя
Дата регистрации:
22 май 2010, 11:03
Возраст: 32
Спасибо: 7690 / 13
Сообщения: 49871
Кинонаграда МТВ 2011 / MTV Movie Awards 2011


Перевод: Отсутствует, cубтитры: отсутствуют
Формат: HDTV, MKV, Другой MPEG4, AC3
Страна: США
Режиссер: Джо ДеМайо
Жанр: церемония награждения
Продолжительность: 01:22:35
Год выпуска: 2011
Описание: MTV Movie Awards — ежегодное телевизионное шоу по присуждению наград в области американского кино, организуемое каналом MTV. Существует с 1992 года. Шоу «Кинонаграды MTV» во многом пародирует оскаровскую церемонию, в частности, снимаются специальные ролики-пародии на фильмы-номинанты. Неизменный атрибут шоу — живые выступления музыкантов. Победители в различных категориях определяются зрительским голосованием на сайте MTV и существенно отражают киновкусы американских тинэйджеров. Церемония вручения премии обставляется в юмористическом ключе. Нередко вручаются шуточные премии. На сцене появляются персонажи из заявленных фильмов и произносят благодарственные речи, как актеры.

Рейтинг на Кинопоиск.RU:8.059
Рейтинг на IMDB: 10/10

Видео: 1280x720, YUV (16:9), 29.97fps, AVC (High@L3.1), 3401 Kbps kbps, 0.121 bit/pixel
Аудио: 48 kHz, AC3, 6 ch (Front: L C R, Surround: L R, LFE), ~384 Kbps avg

General
Complete name: D:\релизы\MTV Movie Awards 2011\mtv_movie_awards_2011_[tfile.ru]\MTV Movie Awards 2011.mkv
Format: Matroska
File size: 2.19 GiB
Duration: 1h 22mn
Overall bit rate: 3 788 Kbps
Encoded date: UTC 2011-06-06 13:09:12
Writing application: mkvmerge v4.0.0 ('The Stars were mine') built on Jun6 2010 16:18:42
Writing library: libebml v1.0.0 + libmatroska v1.0.0

Video
ID: 2
Format: AVC
Format/Info: Advanced Video Codec
Format profile:
Format settings, CABAC: Yes
Format settings, ReFrames: 5 frames
Muxing mode: Container profile=Unknown@3.1
Codec ID: V_MPEG4/ISO/AVC
Duration: 1h 22mn
Bit rate: 3 329 Kbps
Nominal bit rate: 3 401 Kbps
Width: 1 280 pixels
Height: 720 pixels
Display aspect ratio: 16:9
Frame rate: 29.970 fps
Resolution: 24 bits
Colorimetry: 4:2:0
Scan type: Progressive
Bits/(Pixel*Frame): 0.121
Stream size: 1.92 GiB (88%)
Writing library: x264 core 114 r1924 08d04a4
Encoding settings: cabac=1 / ref=5 / deblock=1:0:0 / analyse=0x3:0x133 / me=umh / subme=8 / psy=1 / psy_rd=1.00:0.00 / mixed_ref=0 / me_range=16 / chroma_me=1 / trellis=1 / 8x8dct=1 / cqm=0 / deadzone=21,11 / fast_pskip=0 / chroma_qp_offset=-2 / threads=12 / sliced_threads=0 / nr=0 / decimate=1 / interlaced=0 / constrained_intra=0 / bframes=3 / b_pyramid=2 / b_adapt=1 / b_bias=0 / direct=1 / weightb=1 / open_gop=0 / weightp=2 / keyint=250 / keyint_min=25 / scenecut=40 / intra_refresh=0 / rc_lookahead=30 / rc=2pass / mbtree=1 / bitrate=3401 / ratetol=1.0 / qcomp=0.60 / qpmin=10 / qpmax=51 / qpstep=4 / cplxblur=20.0 / qblur=0.5 / ip_ratio=1.40 / aq=1:1.00

Audio
ID: 1
Format: AC-3
Format/Info: Audio Coding 3
Codec ID: A_AC3
Duration: 1h 22mn
Bit rate mode: Constant
Bit rate: 384 Kbps
Channel(s): 6 channels
Channel positions: Front: L C R, Surround: L R, LFE
Sampling rate: 48.0 KHz
Stream size: 227 MiB (10%)





Поделиться:




реклама партнёра


Вернуться к началу
 Профиль Отправить личное сообщение  
 
   Похожие торренты   Автор   Торрент   Размер 
В этой теме нет новых непрочитанных сообщений. 59-я церемония вручения наград Грэмми / The 59th Grammy Awards 2017 ( Церемония Вручения Наград | Концерт, 2017) HDTVRip 720p | Первый Канал

marya111

0 | 0

3.17 ГБ

В этой теме нет новых непрочитанных сообщений. XXII Летние Олимпийские игры в Москве. Олимпиада-80. Москва (СССР). Церемония открытия (1980) HDTV 1080i

salma3

55 | 10

3.15 ГБ

В этой теме нет новых непрочитанных сообщений. XXXI Летние Олимпийские Игры. Рио-де-Жанейро (Бразилия). Церемония закрытия [BBC, Интершум] [21.08] (2016) DVBRip

salma3

25 | 10

2.28 ГБ

В этой теме нет новых непрочитанных сообщений. Золотой граммофон. 19-я Церемония вручения народной премии [Эфир 28.12] [01-02 из 02] [Концерт, 2014] HDTV 1080i

Dracon

86 | 12

18.4 ГБ

В этой теме нет новых непрочитанных сообщений. Футбол. Кубок Конфедераций 2017. Церемония закрытия [Матч! Футбол 1 HD] [02.07] (2017) HDTV 1080i

salma3

0 | 0

1.88 ГБ

В этой теме нет новых непрочитанных сообщений. Переростки / The Inbetweeners Movie [Комедия, 2011] BDRip 1080p, Dub [лицензия]

salma3

1 | 2

4.37 ГБ

В этой теме нет новых непрочитанных сообщений. Военные игры / War Games: At the End of the Day [Триллер, боевик, ужасы, 2011] DVD5, Mvo

salma3

15 | 11

4.35 ГБ


Начать новую тему Ответить на тему  [ 1 сообщение ] 




Для Мосгорсуда, Роскомнадзора и рекламодателей:: mosgorsud-torrent[собачка]yandex.ru