Торрент файл
скачать торрент магнет ссылка Добавлен: 02 ноя 2011, 07:30
Размер: 8.53 ГБ
Сидеров: 1
Личеров: 3
Автор

СообщениеДобавлено: 02 ноя 2011, 07:30 

Не в сети
Супермодератор
Аватара пользователя
Дата регистрации:
22 май 2010, 11:03
Возраст: 32
Спасибо: 7690 / 13
Сообщения: 49871
Исследователи человеческого тела / Explorers of the Human Body


Перевод: Отсутствует
Субтитры: Русские, вшитые
Формат: TVRip, MP4, H264, AAC
Страна: Корея
Жанр: ТВ шоу
Продолжительность: 13 х 00:40:00
Год выпуска: 2007 - 2008
Описание: Это развлекательно - образовательная программа, которая рассказывает аудитории о возможностях человеческого тела. Ведущий Шин Дон вместе с участниками Junior Super ставят на себе различные эксперименты, которые порой даже не укладываются в голове. Каждый эпизод имеет свою тему изучения человеческого тела.


Видео: 704x384 (16:9), 29,970 fps, AVC_h264, , 1380 kbps avg,0.170 bit/pixel
Аудио: 48,0 kHz, AAC , 2 ch, ~ 128 kbps avg


Общее
Полное имя: F:\ЗАГРУЗКИ\isledovateli_celoveceskovo_tela_[tfile.ru]\isledovania celoveceskovo tela 01.mp4
Формат: MPEG-4
Профиль формата: Base Media
Идентификатор кодека: isom
Размер файла: 416 Мбайт
Продолжительность: 38 м.
Общий поток: 1513 Кбит/сек
Дата кодирования: UTC 2010-08-09 07:52:06
Дата пометки: UTC 2010-08-09 07:52:06

Видео
Идентификатор: 1
Формат: AVC
Формат/Информация: Advanced Video Codec
Профиль формата:
Параметр CABAC формата: Да
Параметр ReFrames формата: 8 кадры
Идентификатор кодека: avc1
Идентификатор кодека/Информация: Advanced Video Coding
Продолжительность: 38 м.
Вид битрейта: Переменный
Битрейт: 1380 Кбит/сек
Максимальный битрейт: 5373 Кбит/сек
Ширина: 704 пикс.
Высота: 384 пикс.
Соотношение сторон: 16:9
Режим частоты кадров: Постоянный
Частота кадров: 29,970 кадр/сек
Цветовое пространство: YUV
Подвыборка цветности: 4:2:0
Битовая глубина: 8 бит
Тип развёртки: Прогрессивная
Бит/(Пиксели*Кадры): 0.170
Размер потока: 380 Мбайт (91%)
Заголовок: Imported with GPAC 0.4.6-DEV (build 1)
Библиотека кодирования: x264 core 92 r1510 33d382a
Настройки программы: cabac=1 / ref=8 / deblock=1:-1:-1 / analyse=0x3:0x133 / me=umh / subme=7 / psy=1 / psy_rd=1.00:0.10 / mixed_ref=1 / me_range=16 / chroma_me=1 / trellis=2 / 8x8dct=1 / cqm=0 / deadzone=21,11 / fast_pskip=0 / chroma_qp_offset=-3 / threads=6 / sliced_threads=0 / nr=0 / decimate=1 / interlaced=0 / constrained_intra=0 / bframes=3 / b_pyramid=2 / b_adapt=2 / b_bias=0 / direct=3 / wpredb=1 / wpredp=2 / keyint=250 / keyint_min=25 / scenecut=40 / intra_refresh=0 / rc_lookahead=50 / rc=crf / mbtree=1 / crf=21.0 / qcomp=0.60 / qpmin=10 / qpmax=51 / qpstep=4 / ip_ratio=1.40 / aq=1:1.00
Дата кодирования: UTC 2010-08-09 07:52:06
Дата пометки: UTC 2010-08-09 07:52:13

Аудио
Идентификатор: 2
Формат: AAC
Формат/Информация: Advanced Audio Codec
Профиль формата: LC
Идентификатор кодека: 40
Продолжительность: 38 м.
Вид битрейта: Переменный
Битрейт: 128 Кбит/сек
Максимальный битрейт: 144 Кбит/сек
Канал(ы): 2 канала(ов)
Расположение каналов: Front: L R
Частота: 48,0 КГц
Метод сжатия: С потерями
Размер потока: 35,2 Мбайт (8%)
Дата кодирования: UTC 2010-08-09 07:52:12
Дата пометки: UTC 2010-08-09 07:52:13









Видео: 640x352 (16:9), 29,970 fps, AVC_h264 , , 1330 kbps avg,0.197 bit/pixel
Аудио: 48,0 kHz, AAC , 2 ch, ~ 128 kbps avg


Общее
Полное имя: F:\ЗАГРУЗКИ\isledovateli_celoveceskovo_tela_[tfile.ru]\isledovania celoveceskovo tela 02.mp4
Формат: MPEG-4
Профиль формата: Base Media
Идентификатор кодека: isom
Размер файла: 379 Мбайт
Продолжительность: 36 м.
Общий поток: 1463 Кбит/сек
Дата кодирования: UTC 2010-08-08 20:54:25
Дата пометки: UTC 2010-08-08 20:54:25

Видео
Идентификатор: 1
Формат: AVC
Формат/Информация: Advanced Video Codec
Профиль формата:
Параметр CABAC формата: Да
Параметр ReFrames формата: 8 кадры
Идентификатор кодека: avc1
Идентификатор кодека/Информация: Advanced Video Coding
Продолжительность: 36 м.
Вид битрейта: Переменный
Битрейт: 1330 Кбит/сек
Максимальный битрейт: 3795 Кбит/сек
Ширина: 640 пикс.
Высота: 352 пикс.
Соотношение сторон: 16:9
Режим частоты кадров: Постоянный
Частота кадров: 29,970 кадр/сек
Цветовое пространство: YUV
Подвыборка цветности: 4:2:0
Битовая глубина: 8 бит
Тип развёртки: Прогрессивная
Бит/(Пиксели*Кадры): 0.197
Размер потока: 345 Мбайт (91%)
Заголовок: Imported with GPAC 0.4.6-DEV (build 1)
Библиотека кодирования: x264 core 92 r1510 33d382a
Настройки программы: cabac=1 / ref=8 / deblock=1:-1:-1 / analyse=0x3:0x133 / me=umh / subme=7 / psy=1 / psy_rd=1.00:0.10 / mixed_ref=1 / me_range=16 / chroma_me=1 / trellis=2 / 8x8dct=1 / cqm=0 / deadzone=21,11 / fast_pskip=0 / chroma_qp_offset=-3 / threads=6 / sliced_threads=0 / nr=0 / decimate=1 / interlaced=0 / constrained_intra=0 / bframes=3 / b_pyramid=2 / b_adapt=2 / b_bias=0 / direct=3 / wpredb=1 / wpredp=2 / keyint=250 / keyint_min=25 / scenecut=40 / intra_refresh=0 / rc_lookahead=50 / rc=crf / mbtree=1 / crf=21.0 / qcomp=0.60 / qpmin=10 / qpmax=51 / qpstep=4 / ip_ratio=1.40 / aq=1:1.00
Дата кодирования: UTC 2010-08-08 20:54:25
Дата пометки: UTC 2010-08-08 20:54:31

Аудио
Идентификатор: 2
Формат: AAC
Формат/Информация: Advanced Audio Codec
Профиль формата: LC
Идентификатор кодека: 40
Продолжительность: 36 м.
Вид битрейта: Переменный
Битрейт: 128 Кбит/сек
Максимальный битрейт: 143 Кбит/сек
Канал(ы): 2 канала(ов)
Расположение каналов: Front: L R
Частота: 48,0 КГц
Метод сжатия: С потерями
Размер потока: 33,2 Мбайт (9%)
Дата кодирования: UTC 2010-08-08 20:54:30
Дата пометки: UTC 2010-08-08 20:54:31









Видео:672x496(4:3), 29,970 fps, AVC_h264 , , 2058 kbps avg,0.206 bit/pixel
Аудио: 48,0 kHz, AAC , 2 ch, ~ 128 kbps avg


Общее
Полное имя: F:\ЗАГРУЗКИ\isledovateli_celoveceskovo_tela_[tfile.ru]\isledovania celoveceskovo tela 03.mp4
Формат: MPEG-4
Профиль формата: Base Media
Идентификатор кодека: isom
Размер файла: 566 Мбайт
Продолжительность: 36 м.
Общий поток: 2190 Кбит/сек
Дата кодирования: UTC 2010-08-29 19:22:11
Дата пометки: UTC 2010-08-29 19:22:11

Видео
Идентификатор: 1
Формат: AVC
Формат/Информация: Advanced Video Codec
Профиль формата:
Параметр CABAC формата: Да
Параметр ReFrames формата: 8 кадры
Идентификатор кодека: avc1
Идентификатор кодека/Информация: Advanced Video Coding
Продолжительность: 36 м.
Вид битрейта: Переменный
Битрейт: 2058 Кбит/сек
Максимальный битрейт: 4777 Кбит/сек
Ширина: 672 пикс.
Высота: 496 пикс.
Соотношение сторон: 4:3
Режим частоты кадров: Постоянный
Частота кадров: 29,970 кадр/сек
Цветовое пространство: YUV
Подвыборка цветности: 4:2:0
Битовая глубина: 8 бит
Тип развёртки: Прогрессивная
Бит/(Пиксели*Кадры): 0.206
Размер потока: 532 Мбайт (94%)
Заголовок: Imported with GPAC 0.4.6-DEV (build 1)
Библиотека кодирования: x264 core 92 r1510 33d382a
Настройки программы: cabac=1 / ref=8 / deblock=1:-1:-1 / analyse=0x3:0x133 / me=umh / subme=7 / psy=1 / psy_rd=1.00:0.10 / mixed_ref=1 / me_range=16 / chroma_me=1 / trellis=2 / 8x8dct=1 / cqm=0 / deadzone=21,11 / fast_pskip=0 / chroma_qp_offset=-3 / threads=6 / sliced_threads=0 / nr=0 / decimate=1 / interlaced=0 / constrained_intra=0 / bframes=3 / b_pyramid=2 / b_adapt=2 / b_bias=0 / direct=3 / wpredb=1 / wpredp=2 / keyint=250 / keyint_min=25 / scenecut=40 / intra_refresh=0 / rc_lookahead=50 / rc=crf / mbtree=1 / crf=21.0 / qcomp=0.60 / qpmin=10 / qpmax=51 / qpstep=4 / ip_ratio=1.40 / aq=1:1.00
Дата кодирования: UTC 2010-08-29 19:22:11
Дата пометки: UTC 2010-08-29 19:22:29

Аудио
Идентификатор: 2
Формат: AAC
Формат/Информация: Advanced Audio Codec
Профиль формата: LC
Идентификатор кодека: 40
Продолжительность: 36 м.
Вид битрейта: Переменный
Битрейт: 128 Кбит/сек
Максимальный битрейт: 146 Кбит/сек
Канал(ы): 2 канала(ов)
Расположение каналов: Front: L R
Частота: 48,0 КГц
Метод сжатия: С потерями
Размер потока: 33,1 Мбайт (6%)
Дата кодирования: UTC 2010-08-29 19:22:28
Дата пометки: UTC 2010-08-29 19:22:29









Видео: 672x480 (1.400:1) , 29.970 fps , MPEG-4 Visual , 2665 kbps avg , 0.276 bit/pixel
Аудио: 48 kHz , MPEG Layer 3 , 2 ch , 128.00 kbps avg


Общее
Полное имя: F:\ЗАГРУЗКИ\isledovateli_celoveceskovo_tela_[tfile.ru]\isledovania celoveceskovo tela 04.avi
Формат: AVI
Формат/Информация: Audio Video Interleave
Размер файла: 760 Мбайт
Продолжительность: 37 м.
Общий поток: 2804 Кбит/сек
Программа кодирования: VirtualDubMod 1.5.10.2 (build 2540/release)
Библиотека кодирования: VirtualDubMod build 2540/release

Видео
Идентификатор: 0
Формат: MPEG-4 Visual
Профиль формата: Advanced Simple@L5
Параметр BVOP формата: Да
Параметр QPel формата: Да
Параметр GMC формата: 3 точки перехода
Параметр матрицы формата: Default (H.263)
Режим смешивания: Сжатый битовый поток
Идентификатор кодека: XVID
Идентификатор кодека/Подсказка: XviD
Продолжительность: 37 м.
Битрейт: 2665 Кбит/сек
Ширина: 672 пикс.
Высота: 480 пикс.
Соотношение сторон: 1,400
Частота кадров: 29,970 кадр/сек
Цветовое пространство: YUV
Подвыборка цветности: 4:2:0
Битовая глубина: 8 бит
Тип развёртки: Прогрессивная
Метод сжатия: С потерями
Бит/(Пиксели*Кадры): 0.276
Размер потока: 723 Мбайт (95%)
Библиотека кодирования: XviD 1.2.1 (UTC 2008-12-04)

Аудио
Идентификатор: 1
Формат: MPEG Audio
Версия формата: Version 1
Профиль формата: Layer 3
Идентификатор кодека: 55
Идентификатор кодека/Подсказка: MP3
Продолжительность: 37 м.
Вид битрейта: Постоянный
Битрейт: 128 Кбит/сек
Канал(ы): 2 канала(ов)
Частота: 48,0 КГц
Метод сжатия: С потерями
Размер потока: 34,7 Мбайт (5%)
Выравнивание: Соединение по промежуткам
Продолжительность промежутка: 33мс. (1,00 видеокадр)
Время предзагрузки промежутка: 504 ms
Библиотека кодирования: LAME3.98r
Настройки программы: -m s -V 4 -q 2 -lowpass 17 -b 128









Видео:704x496(1,419:1), 29,970 fps, AVC_h264 , , 2014 kbps avg,0.192 bit/pixel
Аудио: 48,0 kHz, AAC , 2 ch, ~ 128 kbps avg


Общее
Полное имя: F:\ЗАГРУЗКИ\isledovateli_celoveceskovo_tela_[tfile.ru]\isledovania celoveceskovo tela 05.mp4
Формат: MPEG-4
Профиль формата: Base Media
Идентификатор кодека: isom
Размер файла: 599 Мбайт
Продолжительность: 39 м.
Общий поток: 2147 Кбит/сек
Дата кодирования: UTC 2010-09-17 17:25:08
Дата пометки: UTC 2010-09-17 17:25:08

Видео
Идентификатор: 1
Формат: AVC
Формат/Информация: Advanced Video Codec
Профиль формата:
Параметр CABAC формата: Да
Параметр ReFrames формата: 8 кадры
Идентификатор кодека: avc1
Идентификатор кодека/Информация: Advanced Video Coding
Продолжительность: 39 м.
Вид битрейта: Переменный
Битрейт: 2014 Кбит/сек
Максимальный битрейт: 5118 Кбит/сек
Ширина: 704 пикс.
Высота: 496 пикс.
Соотношение сторон: 1,419
Режим частоты кадров: Постоянный
Частота кадров: 29,970 кадр/сек
Цветовое пространство: YUV
Подвыборка цветности: 4:2:0
Битовая глубина: 8 бит
Тип развёртки: Прогрессивная
Бит/(Пиксели*Кадры): 0.192
Размер потока: 562 Мбайт (94%)
Заголовок: Imported with GPAC 0.4.6-DEV (build 1)
Библиотека кодирования: x264 core 92 r1510 33d382a
Настройки программы: cabac=1 / ref=8 / deblock=1:-1:-1 / analyse=0x3:0x133 / me=umh / subme=7 / psy=1 / psy_rd=1.00:0.10 / mixed_ref=1 / me_range=16 / chroma_me=1 / trellis=2 / 8x8dct=1 / cqm=0 / deadzone=21,11 / fast_pskip=0 / chroma_qp_offset=-3 / threads=6 / sliced_threads=0 / nr=0 / decimate=1 / interlaced=0 / constrained_intra=0 / bframes=3 / b_pyramid=2 / b_adapt=2 / b_bias=0 / direct=3 / wpredb=1 / wpredp=2 / keyint=250 / keyint_min=25 / scenecut=40 / intra_refresh=0 / rc_lookahead=50 / rc=crf / mbtree=1 / crf=21.0 / qcomp=0.60 / qpmin=10 / qpmax=51 / qpstep=4 / ip_ratio=1.40 / aq=1:1.00
Дата кодирования: UTC 2010-09-17 17:25:08
Дата пометки: UTC 2010-09-17 17:25:18

Аудио
Идентификатор: 2
Формат: AAC
Формат/Информация: Advanced Audio Codec
Профиль формата: LC
Идентификатор кодека: 40
Продолжительность: 39 м.
Вид битрейта: Переменный
Битрейт: 128 Кбит/сек
Максимальный битрейт: 151 Кбит/сек
Канал(ы): 2 канала(ов)
Расположение каналов: Front: L R
Частота: 48,0 КГц
Метод сжатия: С потерями
Размер потока: 35,7 Мбайт (6%)
Дата кодирования: UTC 2010-09-17 17:25:17
Дата пометки: UTC 2010-09-17 17:25:18









Видео:640x352( 16:9 ), 29,970 fps, AVC_h264 , , 1767 kbps avg,0.262 bit/pixel
Аудио: 48,0 kHz, AAC , 2 ch, ~ 128 kbps avg


Общее
Полное имя: F:\ЗАГРУЗКИ\isledovateli_celoveceskovo_tela_[tfile.ru]\isledovania celoveceskovo tela 06.mp4
Формат: MPEG-4
Профиль формата: Base Media
Идентификатор кодека: isom
Размер файла: 533 Мбайт
Продолжительность: 39 м.
Общий поток: 1899 Кбит/сек
Дата кодирования: UTC 2010-10-06 13:09:49
Дата пометки: UTC 2010-10-06 13:09:49

Видео
Идентификатор: 1
Формат: AVC
Формат/Информация: Advanced Video Codec
Профиль формата:
Параметр CABAC формата: Да
Параметр ReFrames формата: 8 кадры
Идентификатор кодека: avc1
Идентификатор кодека/Информация: Advanced Video Coding
Продолжительность: 39 м.
Вид битрейта: Переменный
Битрейт: 1767 Кбит/сек
Максимальный битрейт: 5318 Кбит/сек
Ширина: 640 пикс.
Высота: 352 пикс.
Соотношение сторон: 16:9
Режим частоты кадров: Постоянный
Частота кадров: 29,970 кадр/сек
Цветовое пространство: YUV
Подвыборка цветности: 4:2:0
Битовая глубина: 8 бит
Тип развёртки: Прогрессивная
Бит/(Пиксели*Кадры): 0.262
Размер потока: 495 Мбайт (93%)
Заголовок: Imported with GPAC 0.4.6-DEV (build 1)
Библиотека кодирования: x264 core 92 r1510 33d382a
Настройки программы: cabac=1 / ref=8 / deblock=1:-1:-1 / analyse=0x3:0x133 / me=umh / subme=7 / psy=1 / psy_rd=1.00:0.10 / mixed_ref=1 / me_range=16 / chroma_me=1 / trellis=2 / 8x8dct=1 / cqm=0 / deadzone=21,11 / fast_pskip=0 / chroma_qp_offset=-3 / threads=6 / sliced_threads=0 / nr=0 / decimate=1 / interlaced=0 / constrained_intra=0 / bframes=3 / b_pyramid=2 / b_adapt=2 / b_bias=0 / direct=3 / wpredb=1 / wpredp=2 / keyint=250 / keyint_min=25 / scenecut=40 / intra_refresh=0 / rc_lookahead=50 / rc=crf / mbtree=1 / crf=21.0 / qcomp=0.60 / qpmin=10 / qpmax=51 / qpstep=4 / ip_ratio=1.40 / aq=1:1.00
Дата кодирования: UTC 2010-10-06 13:09:49
Дата пометки: UTC 2010-10-06 13:09:57

Аудио
Идентификатор: 2
Формат: AAC
Формат/Информация: Advanced Audio Codec
Профиль формата: LC
Идентификатор кодека: 40
Продолжительность: 39 м.
Вид битрейта: Переменный
Битрейт: 128 Кбит/сек
Максимальный битрейт: 146 Кбит/сек
Канал(ы): 2 канала(ов)
Расположение каналов: Front: L R
Частота: 48,0 КГц
Метод сжатия: С потерями
Размер потока: 35,9 Мбайт (7%)
Дата кодирования: UTC 2010-10-06 13:09:57
Дата пометки: UTC 2010-10-06 13:09:57









Видео:640x480( 4:3 ), 29,970 fps, AVC_h264 , , 1770 kbps avg,0.192 bit/pixel
Аудио: 44,1 kHz, AAC , 2 ch, ~ 128 kbps avg


Общее
Полное имя: F:\ЗАГРУЗКИ\isledovateli_celoveceskovo_tela_[tfile.ru]\isledovania celoveceskovo tela 07.mp4
Формат: MPEG-4
Профиль формата: Base Media
Идентификатор кодека: isom
Размер файла: 537 Мбайт
Продолжительность: 39 м.
Общий поток: 1902 Кбит/сек
Дата кодирования: UTC 2010-10-16 17:06:09
Дата пометки: UTC 2010-10-16 17:06:09

Видео
Идентификатор: 1
Формат: AVC
Формат/Информация: Advanced Video Codec
Профиль формата:
Параметр CABAC формата: Да
Параметр ReFrames формата: 8 кадры
Идентификатор кодека: avc1
Идентификатор кодека/Информация: Advanced Video Coding
Продолжительность: 39 м.
Вид битрейта: Переменный
Битрейт: 1770 Кбит/сек
Максимальный битрейт: 4027 Кбит/сек
Ширина: 640 пикс.
Высота: 480 пикс.
Соотношение сторон: 4:3
Режим частоты кадров: Постоянный
Частота кадров: 29,970 кадр/сек
Цветовое пространство: YUV
Подвыборка цветности: 4:2:0
Битовая глубина: 8 бит
Тип развёртки: Прогрессивная
Бит/(Пиксели*Кадры): 0.192
Размер потока: 500 Мбайт (93%)
Заголовок: Imported with GPAC 0.4.6-DEV (build 1)
Библиотека кодирования: x264 core 92 r1510 33d382a
Настройки программы: cabac=1 / ref=8 / deblock=1:-1:-1 / analyse=0x3:0x133 / me=umh / subme=7 / psy=1 / psy_rd=1.00:0.10 / mixed_ref=1 / me_range=16 / chroma_me=1 / trellis=2 / 8x8dct=1 / cqm=0 / deadzone=21,11 / fast_pskip=0 / chroma_qp_offset=-3 / threads=6 / sliced_threads=0 / nr=0 / decimate=1 / interlaced=0 / constrained_intra=0 / bframes=3 / b_pyramid=2 / b_adapt=2 / b_bias=0 / direct=3 / wpredb=1 / wpredp=2 / keyint=250 / keyint_min=25 / scenecut=40 / intra_refresh=0 / rc_lookahead=50 / rc=crf / mbtree=1 / crf=21.0 / qcomp=0.60 / qpmin=10 / qpmax=51 / qpstep=4 / ip_ratio=1.40 / aq=1:1.00
Дата кодирования: UTC 2010-10-16 17:06:09
Дата пометки: UTC 2010-10-16 17:06:18

Аудио
Идентификатор: 2
Формат: AAC
Формат/Информация: Advanced Audio Codec
Профиль формата: LC
Идентификатор кодека: 40
Продолжительность: 39 м.
Вид битрейта: Переменный
Битрейт: 128 Кбит/сек
Максимальный битрейт: 145 Кбит/сек
Канал(ы): 2 канала(ов)
Расположение каналов: Front: L R
Частота: 44,1 КГц
Метод сжатия: С потерями
Размер потока: 36,2 Мбайт (7%)
Дата кодирования: UTC 2010-10-16 17:06:17
Дата пометки: UTC 2010-10-16 17:06:18









Видео:640x480 ( 4:3 ), 29,970 fps, AVC_h264 , ,1711 kbps avg,0.186 bit/pixel
Аудио: 48 kHz, AAC , 2 ch, ~ 128 kbps avg


Общее
Полное имя: F:\ЗАГРУЗКИ\isledovateli_celoveceskovo_tela_[tfile.ru]\isledovania celoveceskovo tela 08.mp4
Формат: MPEG-4
Профиль формата: Base Media
Идентификатор кодека: isom
Размер файла: 560 Мбайт
Продолжительность: 42 м.
Общий поток: 1842 Кбит/сек
Дата кодирования: UTC 2010-10-26 19:51:25
Дата пометки: UTC 2010-10-26 19:51:25

Видео
Идентификатор: 1
Формат: AVC
Формат/Информация: Advanced Video Codec
Профиль формата:
Параметр CABAC формата: Да
Параметр ReFrames формата: 8 кадры
Идентификатор кодека: avc1
Идентификатор кодека/Информация: Advanced Video Coding
Продолжительность: 42 м.
Вид битрейта: Переменный
Битрейт: 1711 Кбит/сек
Максимальный битрейт: 3947 Кбит/сек
Ширина: 640 пикс.
Высота: 480 пикс.
Соотношение сторон: 4:3
Режим частоты кадров: Постоянный
Частота кадров: 29,970 кадр/сек
Цветовое пространство: YUV
Подвыборка цветности: 4:2:0
Битовая глубина: 8 бит
Тип развёртки: Прогрессивная
Бит/(Пиксели*Кадры): 0.186
Размер потока: 520 Мбайт (93%)
Заголовок: Imported with GPAC 0.4.6-DEV (build 1)
Библиотека кодирования: x264 core 92 r1510 33d382a
Настройки программы: cabac=1 / ref=8 / deblock=1:-1:-1 / analyse=0x3:0x133 / me=umh / subme=7 / psy=1 / psy_rd=1.00:0.10 / mixed_ref=1 / me_range=16 / chroma_me=1 / trellis=2 / 8x8dct=1 / cqm=0 / deadzone=21,11 / fast_pskip=0 / chroma_qp_offset=-3 / threads=6 / sliced_threads=0 / nr=0 / decimate=1 / interlaced=0 / constrained_intra=0 / bframes=3 / b_pyramid=2 / b_adapt=2 / b_bias=0 / direct=3 / wpredb=1 / wpredp=2 / keyint=250 / keyint_min=25 / scenecut=40 / intra_refresh=0 / rc_lookahead=50 / rc=crf / mbtree=1 / crf=21.0 / qcomp=0.60 / qpmin=10 / qpmax=51 / qpstep=4 / ip_ratio=1.40 / aq=1:1.00
Дата кодирования: UTC 2010-10-26 19:51:25
Дата пометки: UTC 2010-10-26 19:51:34

Аудио
Идентификатор: 2
Формат: AAC
Формат/Информация: Advanced Audio Codec
Профиль формата: LC
Идентификатор кодека: 40
Продолжительность: 42 м.
Вид битрейта: Переменный
Битрейт: 128 Кбит/сек
Максимальный битрейт: 148 Кбит/сек
Канал(ы): 2 канала(ов)
Расположение каналов: Front: L R
Частота: 48,0 КГц
Метод сжатия: С потерями
Размер потока: 38,9 Мбайт (7%)
Дата кодирования: UTC 2010-10-26 19:51:33
Дата пометки: UTC 2010-10-26 19:51:34









Видео:720x536 ( 4:3 ), 29,970 fps, AVC_h264 , , 4484 kbps avg,0.388 bit/pixel
Аудио: 48 kHz, AAC , 2 ch, ~ 128 kbps avg


Общее
Полное имя: F:\ЗАГРУЗКИ\isledovateli_celoveceskovo_tela_[tfile.ru]\isledovania celoveceskovo tela 09.mp4
Формат: MPEG-4
Профиль формата: Base Media
Идентификатор кодека: isom
Размер файла: 1,30 Гбайт
Продолжительность: 40 м.
Общий поток: 4616 Кбит/сек
Дата кодирования: UTC 2010-11-14 01:27:59
Дата пометки: UTC 2010-11-14 01:27:59

Видео
Идентификатор: 1
Формат: AVC
Формат/Информация: Advanced Video Codec
Профиль формата:
Параметр CABAC формата: Да
Параметр ReFrames формата: 8 кадры
Идентификатор кодека: avc1
Идентификатор кодека/Информация: Advanced Video Coding
Продолжительность: 40 м.
Вид битрейта: Переменный
Битрейт: 4484 Кбит/сек
Максимальный битрейт: 11,8 Мбит/сек
Ширина: 720 пикс.
Высота: 536 пикс.
Соотношение сторон: 4:3
Режим частоты кадров: Постоянный
Частота кадров: 29,970 кадр/сек
Цветовое пространство: YUV
Подвыборка цветности: 4:2:0
Битовая глубина: 8 бит
Тип развёртки: Прогрессивная
Бит/(Пиксели*Кадры): 0.388
Размер потока: 1,26 Гбайт (97%)
Заголовок: Imported with GPAC 0.4.6-DEV (build 1)
Библиотека кодирования: x264 core 92 r1510 33d382a
Настройки программы: cabac=1 / ref=8 / deblock=1:-1:-1 / analyse=0x3:0x133 / me=umh / subme=7 / psy=1 / psy_rd=1.00:0.10 / mixed_ref=1 / me_range=16 / chroma_me=1 / trellis=2 / 8x8dct=1 / cqm=0 / deadzone=21,11 / fast_pskip=0 / chroma_qp_offset=-3 / threads=6 / sliced_threads=0 / nr=0 / decimate=1 / interlaced=0 / constrained_intra=0 / bframes=3 / b_pyramid=2 / b_adapt=2 / b_bias=0 / direct=3 / wpredb=1 / wpredp=2 / keyint=250 / keyint_min=25 / scenecut=40 / intra_refresh=0 / rc_lookahead=50 / rc=crf / mbtree=1 / crf=21.0 / qcomp=0.60 / qpmin=10 / qpmax=51 / qpstep=4 / ip_ratio=1.40 / aq=1:1.00
Дата кодирования: UTC 2010-11-14 01:27:59
Дата пометки: UTC 2010-11-14 01:29:37

Аудио
Идентификатор: 2
Формат: AAC
Формат/Информация: Advanced Audio Codec
Профиль формата: LC
Идентификатор кодека: 40
Продолжительность: 40 м.
Вид битрейта: Переменный
Битрейт: 128 Кбит/сек
Максимальный битрейт: 156 Кбит/сек
Канал(ы): 2 канала(ов)
Расположение каналов: Front: L R
Частота: 48,0 КГц
Метод сжатия: С потерями
Размер потока: 36,9 Мбайт (3%)
Дата кодирования: UTC 2010-11-14 01:29:36
Дата пометки: UTC 2010-11-14 01:29:37









Видео:672x480 ( 1,400 : 1 ), 29,970 fps, AVC_h264 , , 2490 kbps avg,0.258 bit/pixel
Аудио: 48 kHz, AAC , 2 ch, ~ 128 kbps avg


Общее
Полное имя: F:\ЗАГРУЗКИ\isledovateli_celoveceskovo_tela_[tfile.ru]\isledovania celoveceskovo tela 10.mp4
Формат: MPEG-4
Профиль формата: Base Media
Идентификатор кодека: isom
Размер файла: 770 Мбайт
Продолжительность: 41 м.
Общий поток: 2623 Кбит/сек
Дата кодирования: UTC 2010-11-25 15:14:34
Дата пометки: UTC 2010-11-25 15:14:34

Видео
Идентификатор: 1
Формат: AVC
Формат/Информация: Advanced Video Codec
Профиль формата:
Параметр CABAC формата: Да
Параметр ReFrames формата: 8 кадры
Идентификатор кодека: avc1
Идентификатор кодека/Информация: Advanced Video Coding
Продолжительность: 41 м.
Вид битрейта: Переменный
Битрейт: 2490 Кбит/сек
Максимальный битрейт: 7882 Кбит/сек
Ширина: 672 пикс.
Высота: 480 пикс.
Соотношение сторон: 1,400
Режим частоты кадров: Постоянный
Частота кадров: 29,970 кадр/сек
Цветовое пространство: YUV
Подвыборка цветности: 4:2:0
Битовая глубина: 8 бит
Тип развёртки: Прогрессивная
Бит/(Пиксели*Кадры): 0.258
Размер потока: 731 Мбайт (95%)
Заголовок: Imported with GPAC 0.4.6-DEV (build 1)
Библиотека кодирования: x264 core 92 r1510 33d382a
Настройки программы: cabac=1 / ref=8 / deblock=1:-1:-1 / analyse=0x3:0x133 / me=umh / subme=7 / psy=1 / psy_rd=1.00:0.10 / mixed_ref=1 / me_range=16 / chroma_me=1 / trellis=2 / 8x8dct=1 / cqm=0 / deadzone=21,11 / fast_pskip=0 / chroma_qp_offset=-3 / threads=6 / sliced_threads=0 / nr=0 / decimate=1 / interlaced=0 / constrained_intra=0 / bframes=3 / b_pyramid=2 / b_adapt=2 / b_bias=0 / direct=3 / wpredb=1 / wpredp=2 / keyint=250 / keyint_min=25 / scenecut=40 / intra_refresh=0 / rc_lookahead=50 / rc=crf / mbtree=1 / crf=21.0 / qcomp=0.60 / qpmin=10 / qpmax=51 / qpstep=4 / ip_ratio=1.40 / aq=1:1.00
Дата кодирования: UTC 2010-11-25 15:14:34
Дата пометки: UTC 2010-11-25 15:15:30

Аудио
Идентификатор: 2
Формат: AAC
Формат/Информация: Advanced Audio Codec
Профиль формата: LC
Идентификатор кодека: 40
Продолжительность: 41 м.
Вид битрейта: Переменный
Битрейт: 128 Кбит/сек
Максимальный битрейт: 153 Кбит/сек
Канал(ы): 2 канала(ов)
Расположение каналов: Front: L R
Частота: 48,0 КГц
Метод сжатия: С потерями
Размер потока: 37,6 Мбайт (5%)
Дата кодирования: UTC 2010-11-25 15:15:29
Дата пометки: UTC 2010-11-25 15:15:30









Видео:640x480 (4:3 ), 29,970 fps, AVC_h264 , ,2277 kbps avg,0.247 bit/pixel
Аудио: 48 kHz, AAC , 2 ch, ~ 128 kbps avg


Общее
Полное имя: F:\ЗАГРУЗКИ\isledovateli_celoveceskovo_tela_[tfile.ru]\isledovania celoveceskovo tela 11.mp4
Формат: MPEG-4
Профиль формата: Base Media
Идентификатор кодека: isom
Размер файла: 680 Мбайт
Продолжительность: 39 м.
Общий поток: 2410 Кбит/сек
Дата кодирования: UTC 2010-12-13 21:35:56
Дата пометки: UTC 2010-12-13 21:35:56

Видео
Идентификатор: 1
Формат: AVC
Формат/Информация: Advanced Video Codec
Профиль формата:
Параметр CABAC формата: Да
Параметр ReFrames формата: 8 кадры
Идентификатор кодека: avc1
Идентификатор кодека/Информация: Advanced Video Coding
Продолжительность: 39 м.
Вид битрейта: Переменный
Битрейт: 2277 Кбит/сек
Максимальный битрейт: 4914 Кбит/сек
Ширина: 640 пикс.
Высота: 480 пикс.
Соотношение сторон: 4:3
Режим частоты кадров: Постоянный
Частота кадров: 29,970 кадр/сек
Цветовое пространство: YUV
Подвыборка цветности: 4:2:0
Битовая глубина: 8 бит
Тип развёртки: Прогрессивная
Бит/(Пиксели*Кадры): 0.247
Размер потока: 643 Мбайт (95%)
Заголовок: Imported with GPAC 0.4.6-DEV (build 1)
Библиотека кодирования: x264 core 92 r1510 33d382a
Настройки программы: cabac=1 / ref=8 / deblock=1:-1:-1 / analyse=0x3:0x133 / me=umh / subme=7 / psy=1 / psy_rd=1.00:0.10 / mixed_ref=1 / me_range=16 / chroma_me=1 / trellis=2 / 8x8dct=1 / cqm=0 / deadzone=21,11 / fast_pskip=0 / chroma_qp_offset=-3 / threads=6 / sliced_threads=0 / nr=0 / decimate=1 / interlaced=0 / constrained_intra=0 / bframes=3 / b_pyramid=2 / b_adapt=2 / b_bias=0 / direct=3 / wpredb=1 / wpredp=2 / keyint=250 / keyint_min=25 / scenecut=40 / intra_refresh=0 / rc_lookahead=50 / rc=crf / mbtree=1 / crf=21.0 / qcomp=0.60 / qpmin=10 / qpmax=51 / qpstep=4 / ip_ratio=1.40 / aq=1:1.00
Дата кодирования: UTC 2010-12-13 21:35:56
Дата пометки: UTC 2010-12-13 21:36:08

Аудио
Идентификатор: 2
Формат: AAC
Формат/Информация: Advanced Audio Codec
Профиль формата: LC
Идентификатор кодека: 40
Продолжительность: 39 м.
Вид битрейта: Переменный
Битрейт: 128 Кбит/сек
Максимальный битрейт: 150 Кбит/сек
Канал(ы): 2 канала(ов)
Расположение каналов: Front: L R
Частота: 48,0 КГц
Метод сжатия: С потерями
Размер потока: 36,1 Мбайт (5%)
Дата кодирования: UTC 2010-12-13 21:36:07
Дата пометки: UTC 2010-12-13 21:36:08









Видео:672x480 ( 1,400 :1 ), 29,970 fps, AVC_h264 , ,2725 kbps avg,0.282 bit/pixel
Аудио: 48 kHz, AAC , 2 ch, ~ 128 kbps avg


Общее
Полное имя: F:\ЗАГРУЗКИ\isledovateli_celoveceskovo_tela_[tfile.ru]\isledovania celoveceskovo tela 12.mp4
Формат: MPEG-4
Профиль формата: Base Media
Идентификатор кодека: isom
Размер файла: 778 Мбайт
Продолжительность: 38 м.
Общий поток: 2857 Кбит/сек
Дата кодирования: UTC 2010-12-26 04:38:58
Дата пометки: UTC 2010-12-26 04:38:58

Видео
Идентификатор: 1
Формат: AVC
Формат/Информация: Advanced Video Codec
Профиль формата:
Параметр CABAC формата: Да
Параметр ReFrames формата: 8 кадры
Идентификатор кодека: avc1
Идентификатор кодека/Информация: Advanced Video Coding
Продолжительность: 38 м.
Вид битрейта: Переменный
Битрейт: 2725 Кбит/сек
Максимальный битрейт: 8193 Кбит/сек
Ширина: 672 пикс.
Высота: 480 пикс.
Соотношение сторон: 1,400
Режим частоты кадров: Постоянный
Частота кадров: 29,970 кадр/сек
Цветовое пространство: YUV
Подвыборка цветности: 4:2:0
Битовая глубина: 8 бит
Тип развёртки: Прогрессивная
Бит/(Пиксели*Кадры): 0.282
Размер потока: 742 Мбайт (95%)
Заголовок: Imported with GPAC 0.4.6-DEV (build 1)
Библиотека кодирования: x264 core 92 r1510 33d382a
Настройки программы: cabac=1 / ref=8 / deblock=1:-1:-1 / analyse=0x3:0x133 / me=umh / subme=7 / psy=1 / psy_rd=1.00:0.10 / mixed_ref=1 / me_range=16 / chroma_me=1 / trellis=2 / 8x8dct=1 / cqm=0 / deadzone=21,11 / fast_pskip=0 / chroma_qp_offset=-3 / threads=6 / sliced_threads=0 / nr=0 / decimate=1 / interlaced=0 / constrained_intra=0 / bframes=3 / b_pyramid=2 / b_adapt=2 / b_bias=0 / direct=3 / wpredb=1 / wpredp=2 / keyint=250 / keyint_min=25 / scenecut=40 / intra_refresh=0 / rc_lookahead=50 / rc=crf / mbtree=1 / crf=21.0 / qcomp=0.60 / qpmin=10 / qpmax=51 / qpstep=4 / ip_ratio=1.40 / aq=1:1.00
Дата кодирования: UTC 2010-12-26 04:38:58
Дата пометки: UTC 2010-12-26 04:39:12

Аудио
Идентификатор: 2
Формат: AAC
Формат/Информация: Advanced Audio Codec
Профиль формата: LC
Идентификатор кодека: 40
Продолжительность: 38 м.
Вид битрейта: Переменный
Битрейт: 128 Кбит/сек
Максимальный битрейт: 146 Кбит/сек
Канал(ы): 2 канала(ов)
Расположение каналов: Front: L R
Частота: 48,0 КГц
Метод сжатия: С потерями
Размер потока: 34,8 Мбайт (4%)
Дата кодирования: UTC 2010-12-26 04:39:11
Дата пометки: UTC 2010-12-26 04:39:12









Видео:672x480 ( 1,400 :1 ), 29,970 fps, AVC_h264 , ,2742 kbps avg,0.284 bit/pixel
Аудио: 48 kHz, AAC , 2 ch, ~ 128 kbps avg


Общее
Полное имя: F:\ЗАГРУЗКИ\isledovateli_celoveceskovo_tela_[tfile.ru]\isledovania celoveceskovo tela 13.mp4
Формат: MPEG-4
Профиль формата: Base Media
Идентификатор кодека: isom
Размер файла: 824 Мбайт
Продолжительность: 40 м.
Общий поток: 2874 Кбит/сек
Дата кодирования: UTC 2011-01-17 17:09:28
Дата пометки: UTC 2011-01-17 17:09:28

Видео
Идентификатор: 1
Формат: AVC
Формат/Информация: Advanced Video Codec
Профиль формата:
Параметр CABAC формата: Да
Параметр ReFrames формата: 8 кадры
Идентификатор кодека: avc1
Идентификатор кодека/Информация: Advanced Video Coding
Продолжительность: 40 м.
Вид битрейта: Переменный
Битрейт: 2742 Кбит/сек
Максимальный битрейт: 8481 Кбит/сек
Ширина: 672 пикс.
Высота: 480 пикс.
Соотношение сторон: 1,400
Режим частоты кадров: Постоянный
Частота кадров: 29,970 кадр/сек
Цветовое пространство: YUV
Подвыборка цветности: 4:2:0
Битовая глубина: 8 бит
Тип развёртки: Прогрессивная
Бит/(Пиксели*Кадры): 0.284
Размер потока: 786 Мбайт (95%)
Заголовок: Imported with GPAC 0.4.6-DEV (build 1)
Библиотека кодирования: x264 core 92 r1510 33d382a
Настройки программы: cabac=1 / ref=8 / deblock=1:-1:-1 / analyse=0x3:0x133 / me=umh / subme=7 / psy=1 / psy_rd=1.00:0.10 / mixed_ref=1 / me_range=16 / chroma_me=1 / trellis=2 / 8x8dct=1 / cqm=0 / deadzone=21,11 / fast_pskip=0 / chroma_qp_offset=-3 / threads=6 / sliced_threads=0 / nr=0 / decimate=1 / interlaced=0 / constrained_intra=0 / bframes=3 / b_pyramid=2 / b_adapt=2 / b_bias=0 / direct=3 / wpredb=1 / wpredp=2 / keyint=250 / keyint_min=25 / scenecut=40 / intra_refresh=0 / rc_lookahead=50 / rc=crf / mbtree=1 / crf=21.0 / qcomp=0.60 / qpmin=10 / qpmax=51 / qpstep=4 / ip_ratio=1.40 / aq=1:1.00
Дата кодирования: UTC 2011-01-17 17:09:28
Дата пометки: UTC 2011-01-17 17:09:42

Аудио
Идентификатор: 2
Формат: AAC
Формат/Информация: Advanced Audio Codec
Профиль формата: LC
Идентификатор кодека: 40
Продолжительность: 40 м.
Вид битрейта: Переменный
Битрейт: 128 Кбит/сек
Максимальный битрейт: 154 Кбит/сек
Канал(ы): 2 канала(ов)
Расположение каналов: Front: L R
Частота: 48,0 КГц
Метод сжатия: С потерями
Размер потока: 36,7 Мбайт (4%)
Дата кодирования: UTC 2011-01-17 17:09:40
Дата пометки: UTC 2011-01-17 17:09:42









Поделиться:




реклама партнёра


Вернуться к началу
 Профиль Отправить личное сообщение  
 
   Похожие торренты   Автор   Торрент   Размер 
В этой теме нет новых непрочитанных сообщений. Исследователи / Explorers [Фантастика, фэнтези, приключения, семейный, 1985] HDTV 1080i, Mvo

salma3

24 | 5

3.83 ГБ

В этой теме нет новых непрочитанных сообщений. Карта человеческого сердца / Map of the Human Heart (Винсент Уорд / Vincent Ward) [1993г., Канада, драма, мелодрама, приключения, военный, BDRip-AVC] DVO+avo

Alfredovich

18 | 3

3.11 ГБ

В этой теме нет новых непрочитанных сообщений. Влияние тела / Body of Influence [драма, триллер, 1993] DVDRip, Avo

salma3

129 | 8

1.46 ГБ

В этой теме нет новых непрочитанных сообщений. Химия тела / Body Chemistry [триллер, драма, 1990] DVDRip, Avo

salma3

139 | 24

1.37 ГБ

В этой теме нет новых непрочитанных сообщений. Planet Explorers [Action, Adventure, RPG, Sandbox, 3D, 2016] [RePack]

Sykre

2 | 2

6.09 ГБ

В этой теме нет новых непрочитанных сообщений. Человеческий контракт / The Human Contract [Драма, 2008] BDRip 1080р, Dvo

salma3

37 | 27

7.94 ГБ

В этой теме нет новых непрочитанных сообщений. [NuruMassage.com / FantasyMassage.com] Chanel Preston (Box Set / 20.10.2017) [Big Tits, Brunette, Tattoo, Body Massage, Handjob, Blowjob, Deepthroat, Hardcore, Masturbation, Body Sliding, Bath, Ass, HD Porn, Nuru Gel, 1080p, HDRip]

salma3

20 | 6

1.37 ГБ


Начать новую тему Ответить на тему  [ 1 сообщение ] 




Для Мосгорсуда, Роскомнадзора и рекламодателей:: mosgorsud-torrent[собачка]yandex.ru