Торрент файл
скачать торрент магнет ссылка Добавлен: 02 ноя 2011, 07:30
Размер: 1.03 ГБ
Сидеров: 23
Личеров: 12
Автор

СообщениеДобавлено: 02 ноя 2011, 07:30 

Не в сети
Супермодератор
Аватара пользователя
Дата регистрации:
22 май 2010, 11:03
Возраст: 32
Спасибо: 7690 / 13
Сообщения: 49871
Реальный мир Л 2 сезон / The Real L Word: Los Angeles 2 Season


Перевод: Профессиональный (полное дублирование), cубтитры: русские

Формат: TVRip, MPEG, AVC, AAC
Страна: США
Режиссер: Айлин Чайкин
Жанр: документальный
Год выпуска: 2011
Продолжительность: 5 х ~00:54:00

В ролях: Уитни Микстер, Клэр Мосли, Франсин Беппу, Роми Клингер, Kelsey Grace Chavarria, Саида Голде, Кейси и Кори.

Описание: Документальный фильм рассказывающий о настоящей жизни лесбиянок из Лос-Анджелеса.

Видео: 624х352 (16:9), AVC MPEG-4 (Base Media), 23.976 fps, 400 kbps avg, 0.076 bit/pixel
Аудио: AAC, 2 ch, 128 kbps avg, 44,1 kHz

Рейтинг сериала:


episode 1:Fresh Start (Новый старт)
episode 2:The Morning After (После утра)
episode 3:Back To Square One (Возвращается на круги своя)
episode 4:The Other L Word (Другие слова L)
episode 5:About To Get Juicy (Собираясь добраться)


Общее
Полное имя: D:\Видео\The Real L Word 2 season 2 episode.mp4
Формат: MPEG-4
Профиль формата: Base Media
Идентификатор кодека: isom
Размер файла: 206 Мбайт
Продолжительность: 54 м.
Общий поток: 532 Кбит/сек
Программа кодирования: Lavf52.40.0

Видео
Идентификатор: 1
Формат: AVC
Формат/Информация: Advanced Video Codec
Профиль формата:
Параметр CABAC формата: Нет
Параметр ReFrames формата: 1 кадр
Идентификатор кодека: avc1
Идентификатор кодека/Информация: Advanced Video Coding
Продолжительность: 54 м.
Вид битрейта: Переменный
Битрейт: 400 Кбит/сек
Номинальный битрейт: 430 Кбит/сек
Ширина: 624 пикс.
Высота: 352 пикс.
Соотношение сторон: 16:9
Режим частоты кадров: Переменный
Частота кадров: 23,976 кадр/сек
Частота кадров в оригинале: 25,000 кадр/сек
Минимальная частота кадров: 12,500 кадр/сек
Максимальная частота кадров: 25,000 кадр/сек
Цветовое пространство: YUV
Подвыборка цветности: 4:2:0
Битовая глубина: 8 бит
Тип развёртки: Прогрессивная
Бит/(Пиксели*Кадры): 0.076
Размер потока: 155 Мбайт (75%)
Библиотека кодирования: x264 core 79
Настройки программы: cabac=0 / ref=1 / deblock=1:0:0 / analyse=0x1:0x131 / me=tesa / subme=9 / psy=1 / psy_rd=1.0:0.0 / mixed_ref=0 / me_range=24 / chroma_me=1 / trellis=0 / 8x8dct=0 / cqm=0 / deadzone=21,11 / chroma_qp_offset=-2 / threads=24 / nr=0 / decimate=1 / mbaff=0 / constrained_intra=0 / bframes=0 / wpredp=0 / keyint=250 / keyint_min=25 / scenecut=40 / rc_lookahead=40 / rc=cbr / mbtree=1 / bitrate=430 / ratetol=9.3 / qcomp=0.60 / qpmin=10 / qpmax=51 / qpstep=4 / vbv_maxrate=10000 / vbv_bufsize=10000 / ip_ratio=1.41 / aq=1:1.00

Аудио
Идентификатор: 2
Формат: AAC
Формат/Информация: Advanced Audio Codec
Профиль формата: LC
Идентификатор кодека: 40
Продолжительность: 54 м.
Вид битрейта: Переменный
Битрейт: 128 Кбит/сек
Канал(ы): 2 канала(ов)
Расположение каналов: Front: L R
Частота: 44,1 КГц
Метод сжатия: С потерями
Размер потока: 49,5 Мбайт (24%)











Поделиться:




реклама партнёра


Вернуться к началу
 Профиль Отправить личное сообщение  
 
   Похожие торренты   Автор   Торрент   Размер 
В этой теме нет новых непрочитанных сообщений. Морская Полиция: Лос-Анджелес / NCIS: Los Angeles / 3 сезон 1-19 серии из 24 [Триллер, драма, криминал, детектив, боевик, 2011-2012] WEB-DLRip, Mvo [FOX]

salma3

0 | 1

13.17 ГБ

В этой теме нет новых непрочитанных сообщений. 22 ангела / 22 ángeles (драма, история, 2016) TVRip | Sub

marya111

487 | 69

1.39 ГБ

В этой теме нет новых непрочитанных сообщений. NBA 2017-2018 / RS / 19.10.2017 / Los Angeles Clippers @ Los Angeles Lakers [Бакетбол, 19.10.2017, WEBRip (1080р)]

salma3

11 | 5

2.32 ГБ

В этой теме нет новых непрочитанных сообщений. Морская полиция: Лос-Анджелес / NCIS: Los Angeles / 7 сезон 1-23 серии из 24 [триллер, драма, криминал, детектив, 2015] WEB-DLRip, Mvo [BaibaKo]

salma3

16 | 19

13.09 ГБ

В этой теме нет новых непрочитанных сообщений. Реальный оргазм [2014 г., Amateur, CamRip]

Dievas

12 | 4

71.7 МБ

В этой теме нет новых непрочитанных сообщений. Реальный Рокки / The Bleeder [драма, биография, спорт, 2016] HDRip, Mvo

salma3

602 | 40

1.46 ГБ

В этой теме нет новых непрочитанных сообщений. Battle: Los Angeles The Videogame [Action (Shooter), 3D, 1st Person, 2011] [RePack]

Sykre

27 | 4

1.31 ГБ


Начать новую тему Ответить на тему  [ 1 сообщение ] 




Для Мосгорсуда, Роскомнадзора и рекламодателей:: mosgorsud-torrent[собачка]yandex.ru