Торрент файл
скачать торрент магнет ссылка Добавлен: 02 ноя 2011, 07:21
Размер: 164.31 МБ
Сидеров: 0
Личеров: 4
Автор

СообщениеДобавлено: 02 ноя 2011, 07:21 

Не в сети
Супермодератор
Аватара пользователя
Дата регистрации:
22 май 2010, 11:03
Возраст: 31
Спасибо: 7524 / 13
Сообщения: 49940
Сверхлюди Стэна Ли (5-я серия) / Superhumans Stаn Lee's



Перевод: Профессиональный (одноголосый), cубтитры: отсутствуют
Формат: LowHDRip, MP4, H264, AAC
Страна: США
Режиссер: Стэн Ли
Жанр: документальный, познавательное шоу
Продолжительность: 00:43:45
Год выпуска: 2011
В ролях: Даниель Броунинг Смит, Стэн Ли
Описание: Автор знаменитых комиксов, создатель Человека-паука и Людей Х представлят програму о людях с необычными способностями. Познакомьтесь с новыми сверхлюдьми: самый быстрый стрелок в мире, чемпион мира по сауне, чемпион мира по прыжкам с высоты и человек с самым смертельным ударом в мире.
В этом выпуске:
1. Человек-"Супер драйвер", ныряет на 200 метров без повреждений
2. Человек-"Волк", в волчьей стае его никогда не загрызут
3. Человек-"Супер мозг", обладает телекинезом
4. Человек-"Супер эквилебрист", ему ничего не страшно


Видео: 640х356 (1.79:1), 25.000 fps, MPEG-4 AVC , ~440 Kbps avg, 0.074 bit/pixel
Аудио: 44.1 KHz, AAC LC, 2 channels, (Front: L R), ~96.0 Kbps avg
General
Complete name : Stan_Lee's_Superhumans_5.mp4
Format : MPEG-4
Format profile : Base Media
Codec ID : isom
File size : 164 MiB
Duration : 43mn 45s
Overall bit rate : 525 Kbps
Writing application : Lavf52.40.0
Video #1
ID : 1
Format : AVC
Format/Info : Advanced Video Codec
Format profile :
Format settings, CABAC : No
Format settings, ReFrames : 1 frame
Codec ID : avc1
Codec ID/Info : Advanced Video Coding
Duration : 43mn 45s
Bit rate mode : Variable
Bit rate : 424 Kbps
Nominal bit rate : 440 Kbps
Width : 640 pixels
Height : 356 pixels
Display aspect ratio : 16:9
Frame rate mode : Constant
Frame rate : 25.000 fps
Resolution : 8 bits
Colorimetry : 4:2:0
Scan type : Progressive
Bits/(Pixel*Frame) : 0.074
Stream size : 133 MiB (81%)
Writing library : x264 core 79
Audio #1
ID : 1
Format : AAC
Format/Info : Advanced Audio Codec
Format version : Version 4
Format profile : LC
Format settings, SBR : No
Codec ID : 40
Duration : 43mn 45s
Bit rate mode : Variable
Bit rate : 96.0 Kbps
Channel(s) : 2 channels
Channel positions : Front: L R
Sampling rate : 44.1 KHz
Stream size : 30.3 MiB (18%)
Language : Russian








Поделиться:




реклама партнёра


Вернуться к началу
 Профиль Отправить личное сообщение  
 
   Похожие торренты   Автор   Торрент   Размер 
В этой теме нет новых непрочитанных сообщений. Discovery. Мастерская Фантом Уоркс / Fantom Works [02x01-03 из 12] (Озана Хейлик, Брайан Крегг) [2014, Документальный, познавательное шоу, автомобилестроение, HDTV 1080]

Nickolas3435

4 | 2

6.81 ГБ

В этой теме нет новых непрочитанных сообщений. Познавательное ТВ: Почему уничтожили СССР? [2014, Познавательный, HD 720p]

Nickolas3435

37 | 4

356.6 МБ

В этой теме нет новых непрочитанных сообщений. Стэн против сил зла / Stan Against Evil [01x01-06 из 08] (2016) WEB-DL 720p | NewStudio

marya111

17 | 6

4.36 ГБ

В этой теме нет новых непрочитанных сообщений. Стэн против сил зла / Stan Against Evil [01x01-06 из 08] (2016) WEB-DLRip | NewStudio

marya111

25 | 9

1.76 ГБ

В этой теме нет новых непрочитанных сообщений. Стэн против сил зла / Stan Against Evil [S01] [Ужасы, комедия, 2016] WEB-DLRip, Mvo [NewStudio]

salma3

283 | 118

2.34 ГБ

В этой теме нет новых непрочитанных сообщений. Стэн против сил зла / Stan Against Evil [S01] [Ужасы, комедия, 2016] WEB-DL 720p, Mvo [NewStudio]

salma3

88 | 40

5.81 ГБ

В этой теме нет новых непрочитанных сообщений. Арабская весна. Игры престолов [Документальный, 10.09.2014] SatRip

Dracon

4 | 3

1.05 ГБ


Начать новую тему Ответить на тему  [ 1 сообщение ] 




Для Мосгорсуда, Роскомнадзора и рекламодателей:: mosgorsud-torrent[собачка]yandex.ru