Торрент файл
скачать торрент магнет ссылка Добавлен: 02 ноя 2011, 07:20
Размер: 176.42 МБ
Сидеров: 2
Личеров: 4
Автор

СообщениеДобавлено: 02 ноя 2011, 07:20 

Не в сети
Супермодератор
Аватара пользователя
Дата регистрации:
22 май 2010, 11:03
Возраст: 31
Спасибо: 7513 / 13
Сообщения: 49940
Сверхлюди Стэна Ли (6-я серия из 6) / Superhumans Stаn Lee's



Перевод: Профессиональный (одноголосый), cубтитры: отсутствуют

Формат: TVRip, MP4, H.264, AAC

Страна: США

Режиссер: Стэн Ли

Жанр: документальный, познавательное шоу
Продолжительность: 00:43:01
Год выпуска: 2011

В ролях: Даниель Броунинг Смит, Стэн Ли
Описание: Автор знаменитых комиксов, создатель Человека-паука и Людей Х представлят програму о людях с необычными способностями. Познакомьтесь с новыми сверхлюдьми: самый быстрый стрелок в мире, чемпион мира по сауне, чемпион мира по прыжкам с высоты и человек с самым смертельным ударом в мире.

В этом выпуске:
1. Человек, способный разрубить пулю самурайским мечом
2. Человек, способный контролировать рой пчёл
3. Человек,способный найти выход из смертельных ситуаций
4. Человек-"Живой маникен"


Видео: 640x356 (1.79:1), 25 fps, AVC (H264), , ~440 Kbps avg, 0.077 bit/pixel
Аудио: 44.1 KHz, AAC LC, 2 ch., 128.0 Kbps avg


Общее
Полное имя : Сверхлюди Стэна Ли Выпуск 6.mp4
Формат : MPEG-4
Профиль формата : Base Media
Идентификатор кодека : isom
Размер файла : 176 Мбайт
Продолжительность : 43 м.
Общий поток : 573 Кбит/сек
Программа кодирования : Lavf52.40.0

Видео
Идентификатор : 1
Формат : AVC
Формат/Информация : Advanced Video Codec
Профиль формата :
Параметр CABAC формата : Нет
Параметр ReFrames формата : 1 кадр
Идентификатор кодека : avc1
Идентификатор кодека/Информация : Advanced Video Coding
Продолжительность : 43 м.
Вид битрейта : Переменный
Битрейт : 440 Кбит/сек
Ширина : 640 пикс.
Высота : 356 пикс.
Соотношение сторон : 5:4
Режим частоты кадров : Постоянный
Частота кадров : 25,000 кадр/сек
Цветовое пространство : YUV
Подвыборка цветности : 4:2:0
Битовая глубина : 8 бит
Тип развёртки : Прогрессивная
Бит/(Пиксели*Кадры) : 0.077
Размер потока : 136 Мбайт (77%)
Библиотека кодирования : x264 core 79
Настройки программы : cabac=0 / ref=1 / deblock=1:0:0 / analyse=0x1:0x131 / me=tesa / subme=9 / psy=1 / psy_rd=1.0:0.0 / mixed_ref=0 / me_range=24 / chroma_me=1 / trellis=0 / 8x8dct=0 / cqm=0 / deadzone=21,11 / chroma_qp_offset=-2 / threads=24 / nr=0 / decimate=1 / mbaff=0 / constrained_intra=0 / bframes=0 / wpredp=0 / keyint=250 / keyint_min=25 / scenecut=40 / rc_lookahead=40 / rc=cbr / mbtree=1 / bitrate=440 / ratetol=9.1 / qcomp=0.60 / qpmin=10 / qpmax=51 / qpstep=4 / vbv_maxrate=10000 / vbv_bufsize=10000 / ip_ratio=1.41 / aq=1:1.00

Аудио
Идентификатор : 2
Формат : AAC
Формат/Информация : Advanced Audio Codec
Профиль формата : LC
Идентификатор кодека : 40
Продолжительность : 43 м.
Вид битрейта : Переменный
Битрейт : 128 Кбит/сек
Канал(ы) : 2 канала(ов)
Расположение каналов : Front: L R
Частота : 44,1 КГц
Метод сжатия : С потерями
Размер потока : 39,4 Мбайт (22%)








Поделиться:




реклама партнёра


Вернуться к началу
 Профиль Отправить личное сообщение  
 
   Похожие торренты   Автор   Торрент   Размер 
В этой теме нет новых непрочитанных сообщений. Discovery. Мастерская Фантом Уоркс / Fantom Works [02x01-03 из 12] (Озана Хейлик, Брайан Крегг) [2014, Документальный, познавательное шоу, автомобилестроение, HDTV 1080]

Nickolas3435

4 | 2

6.81 ГБ

В этой теме нет новых непрочитанных сообщений. Познавательное ТВ: Почему уничтожили СССР? [2014, Познавательный, HD 720p]

Nickolas3435

37 | 4

356.6 МБ

В этой теме нет новых непрочитанных сообщений. Стэн против сил зла / Stan Against Evil [01x01-06 из 08] (2016) WEB-DL 720p | NewStudio

marya111

17 | 6

4.36 ГБ

В этой теме нет новых непрочитанных сообщений. Стэн против сил зла / Stan Against Evil [01x01-06 из 08] (2016) WEB-DLRip | NewStudio

marya111

25 | 9

1.76 ГБ

В этой теме нет новых непрочитанных сообщений. Стэн против сил зла / Stan Against Evil [S01] [Ужасы, комедия, 2016] WEB-DLRip, Mvo [NewStudio]

salma3

283 | 118

2.34 ГБ

В этой теме нет новых непрочитанных сообщений. Стэн против сил зла / Stan Against Evil [S01] [Ужасы, комедия, 2016] WEB-DL 720p, Mvo [NewStudio]

salma3

88 | 40

5.81 ГБ

В этой теме нет новых непрочитанных сообщений. Арабская весна. Игры престолов [Документальный, 10.09.2014] SatRip

Dracon

4 | 3

1.05 ГБ


Начать новую тему Ответить на тему  [ 1 сообщение ] 




Для Мосгорсуда, Роскомнадзора и рекламодателей:: mosgorsud-torrent[собачка]yandex.ru