Торрент файл
скачать торрент магнет ссылка Добавлен: 02 ноя 2011, 07:18
Размер: 2.04 ГБ
Сидеров: 10
Личеров: 5
Автор

СообщениеДобавлено: 02 ноя 2011, 07:18 

Не в сети
Супермодератор
Аватара пользователя
Дата регистрации:
22 май 2010, 11:03
Возраст: 31
Спасибо: 7508 / 13
Сообщения: 49940
Чудаки 3D / Jackass 3D


Перевод: Профессиональный (полное дублирование)
Субтитры: отсутствуют
Формат: HDRip, MKV, H.264, AC3
Страна: США, Румыния
Режиссер: Джефф Треймейн
Жанр: документальный, комедия
Продолжительность: 01:39:44
Год выпуска: 2010
В ролях: Джонни Ноксвил, Бэм Марджера, Райан Данн, Стив-О, Джейсон Акуна, Престон Лэси, Крис Понтиус, Эрен МакГехи, Дэйв Инглэнд, Лумис Фолл

Описание: Скандальная, саркастическая, грубая и абсолютно сумасбродная команда Джонни Ноксвила опять готова шокировать, смешить и срывать крышу, и в этот раз они удивят еще больше. Теперь каждый может стать почти соучастником событий, поскольку наблюдать за выходками чудаков можно будет в формате 3D. Фильм состоит из ряда экстремальных трюков, нерядовых шуток и безумных экспериментов, — все это испытает на собственной шкуре эта безумная компания. Никогда не знаешь — плакать или смеяться от их выходок, ведь они демонстрируют то, что каждый тайком хотел сделать, но боялся попробовать.

Рейтинг КиноПоиск.RU: 6.758
Рейтинг IMDB: 7.2/10
Рейтинг MPAA: R

Видео: 1280х720p (16:9), 23.98fps, AVC MPEG4 (x264) ~ 2536 Kbps avg, 0.115 bit/pixel
Аудио: Русский 48 kHz, AC3, 6 ch ~ 384 Kbps avg


Общее
Уникальный идентификатор: 241493979908448786526737705383152916621 (0xB5AE0C79893B39B4BC5028D00671188D)
Полное имя: F:\Files\Video\Films\Чудаки\Чудаки 3D\Jackass_3_720p.mkv
Формат: Matroska
Размер файла: 2,04 Гбайт
Продолжительность: 1 ч. 39 м.
Общий поток: 2922 Кбит/сек
Название фильма: Rip by victordan 95
Дата кодирования: UTC 2011-03-31 14:25:05
Программа кодирования: mkvmerge v3.2.0 ('Beginnings') built on Feb 12 2010 16:46:17
Библиотека кодирования: libebml v0.7.9 + libmatroska v0.8.1

Видео
Идентификатор: 1
Формат: AVC
Формат/Информация: Advanced Video Codec
Профиль формата:
Параметр CABAC формата: Да
Параметр ReFrames формата: 5 кадры
Параметры GOP формата: M=4, N=24
Идентификатор кодека: V_MPEG4/ISO/AVC
Продолжительность: 1 ч. 39 м.
Вид битрейта: Переменный
Битрейт: 2536 Кбит/сек
Максимальный битрейт: 15,0 Мбит/сек
Ширина: 1280 пикс.
Высота: 720 пикс.
Соотношение сторон: 16:9
Частота кадров: 23,976 кадр/сек
Цветовое пространство: YUV
Подвыборка цветности: 4:2:0
Битовая глубина: 8 бит
Тип развёртки: Прогрессивная
Бит/(Пиксели*Кадры): 0.115
Размер потока: 1,73 Гбайт (85%)
Библиотека кодирования: x264 core 114 r1913 5fd3dce
Настройки программы: cabac=1 / ref=6 / deblock=1:0:0 / analyse=0x3:0x113 / me=umh / subme=8 / psy=1 / psy_rd=1.00:0.00 / mixed_ref=1 / me_range=16 / chroma_me=1 / trellis=1 / 8x8dct=1 / cqm=0 / deadzone=21,11 / fast_pskip=1 / chroma_qp_offset=-2 / threads=3 / sliced_threads=0 / slices=4 / nr=0 / decimate=1 / interlaced=0 / constrained_intra=0 / bframes=3 / b_pyramid=1 / b_adapt=1 / b_bias=0 / direct=3 / weightb=1 / open_gop=0 / weightp=1 / keyint=24 / keyint_min=1 / scenecut=40 / intra_refresh=0 / rc_lookahead=24 / rc=2pass / mbtree=1 / bitrate=2536 / ratetol=1.0 / qcomp=0.60 / qpmin=0 / qpmax=69 / qpstep=4 / cplxblur=20.0 / qblur=0.5 / vbv_maxrate=15000 / vbv_bufsize=15000 / nal_hrd=vbr / ip_ratio=1.10 / aq=1:1.00
Язык: English

Аудио
Идентификатор: 2
Формат: AC-3
Формат/Информация: Audio Coding 3
Расширение режима: CM (complete main)
Идентификатор кодека: A_AC3
Продолжительность: 1 ч. 39 м.
Вид битрейта: Постоянный
Битрейт: 384 Кбит/сек
Канал(ы): 6 канала(ов)
Расположение каналов: Front: L C R, Side: L R, LFE
Частота: 48,0 КГц
Битовая глубина: 16 бит
Метод сжатия: С потерями
Размер потока: 274 Мбайт (13%)
Заголовок: AC3 5.1 @ 384 kb/s [Russian DUB R5]
Язык: Russian










Поделиться:




реклама партнёра


Вернуться к началу
 Профиль Отправить личное сообщение  
 
   Похожие торренты   Автор   Торрент   Размер 
В этой теме нет новых непрочитанных сообщений. Чудаки: Несносный дед / Jackass Presents: Bad Grandpa [комедия, 2013] HDRip, avo

Dracon

3 | 2

1.46 ГБ

В этой теме нет новых непрочитанных сообщений. Чудаки: Несносный дед / Jackass Presents: Bad Grandpa [комедия, 2013] HDRip, Mvo [UNRATED]

Dracon

248 | 5

704.02 МБ

В этой теме нет новых непрочитанных сообщений. Чудаки: Несносный дед  / Jackass Presents: Bad Grandpa [комедия, 2013] BDRip 720p, Mvo [UNRATED]

Dracon

3 | 2

6.36 ГБ

В этой теме нет новых непрочитанных сообщений. Чудаки: Несносный дед / Jackass Presents: Bad Grandpa [комедия, 2013] BDRip 720p, Dub [Лицензия]

Dracon

0 | 2

5.11 ГБ

В этой теме нет новых непрочитанных сообщений. Чудаки: Несносный дед / Jackass Presents: Bad Grandpa [комедия, 2013] BDRip 1080p, Mvo [UNRATED]

Dracon

3 | 2

13.73 ГБ

В этой теме нет новых непрочитанных сообщений. Несносная бабуля / Jackass Presents: Bad Grandpa .5 [комедия, 2014] WEB-DL 720p, Dub [iTunes]

Dracon

527 | 15

3.01 ГБ

В этой теме нет новых непрочитанных сообщений. Правила игры (Холостяцкие игры) / Bachelor Games [ужасы, боевик, триллер, комедия, приключения, 2016] HDRip, Avo

salma3

199 | 9

1.28 ГБ


Начать новую тему Ответить на тему  [ 1 сообщение ] 




Для Мосгорсуда, Роскомнадзора и рекламодателей:: mosgorsud-torrent[собачка]yandex.ru