Торрент файл
скачать торрент магнет ссылка Добавлен: 02 ноя 2011, 07:11
Размер: 8.99 ГБ
Сидеров: 0
Личеров: 6
Автор

СообщениеДобавлено: 02 ноя 2011, 07:11 

Не в сети
Супермодератор
Аватара пользователя
Дата регистрации:
22 май 2010, 11:03
Возраст: 31
Спасибо: 7513 / 13
Сообщения: 49940
Чудаки 3D / Jackass 3D


Перевод: Профессиональный (полное дублирование)
Субтитры: русские, английские
Формат: BDRip, MKV, H.264, AC3
Страна: США, Румыния
Режиссер: Джефф Треймейн
Жанр: документальный, комедия
Продолжительность: 01:39:44
Год выпуска: 2010
В ролях: Джонни Ноксвил, Бэм Марджера, Райан Данн, Стив-О, Джейсон Акуна, Престон Лэси, Крис Понтиус, Эрен МакГехи, Дэйв Инглэнд, Лумис Фолл

Описание: Скандальная, саркастическая, грубая и абсолютно сумасбродная команда Джонни Ноксвила опять готова шокировать, смешить и срывать крышу, и в этот раз они удивят еще больше. Теперь каждый может стать почти соучастником событий, поскольку наблюдать за выходками чудаков можно будет в формате 3D. Фильм состоит из ряда экстремальных трюков, нерядовых шуток и безумных экспериментов, — все это испытает на собственной шкуре эта безумная компания. Никогда не знаешь — плакать или смеяться от их выходок, ведь они демонстрируют то, что каждый тайком хотел сделать, но боялся попробовать.

Рейтинг КиноПоиск.RU: 6.758
Рейтинг IMDB: 7.2/10
Рейтинг MPAA: R

Видео: 1920x1080 (16:9), 23.98fps, AVC MPEG4 (x264) ~ 11.0 Mbps avg, 0.222 bit/pixel
Аудио: Русский 48 kHz, AC3, 6 ch ~ 384 Kbps avg
Аудио: Английский 48 kHz, DTS, 6 ch ~ 1510 Kbps avg


Общее
Уникальный идентификатор: 176062532148489300012447516557804298439 (0x84746907C75081C0A57581949837E0C7)
Полное имя: F:\Files\Video\Films\Чудаки\Чудаки 3D\Jackass_3_1080p.mkv
Формат: Matroska
Размер файла: 8,99 Гбайт
Продолжительность: 1 ч. 39 м.
Общий поток: 12,9 Мбит/сек
Название фильма: Чудаки 3 / Jackass 3 [UNRATED] (2010) .....:::UNIONGANG:::.....
Дата кодирования: UTC 2011-03-30 15:19:46
Программа кодирования: mkvmerge v4.6.0 ('Still Crazy After All These Years') сборка от Mar 10 2011 02:50:32
Библиотека кодирования: libebml v1.2.0 + libmatroska v1.1.0

Видео
Идентификатор: 1
Формат: AVC
Формат/Информация: Advanced Video Codec
Профиль формата:
Параметр CABAC формата: Да
Параметр ReFrames формата: 4 кадры
Идентификатор кодека: V_MPEG4/ISO/AVC
Продолжительность: 1 ч. 39 м.
Битрейт: 11,0 Мбит/сек
Ширина: 1920 пикс.
Высота: 1080 пикс.
Соотношение сторон: 16:9
Частота кадров: 23,976 кадр/сек
Цветовое пространство: YUV
Подвыборка цветности: 4:2:0
Битовая глубина: 8 бит
Тип развёртки: Прогрессивная
Бит/(Пиксели*Кадры): 0.222
Размер потока: 7,49 Гбайт (83%)
Заголовок: Jackass.2010.UNRATED.D.BDRip.1080p-CHD
Библиотека кодирования: x264 core 114 r1913 5fd3dce
Настройки программы: cabac=1 / ref=4 / deblock=1:-3:-3 / analyse=0x3:0x113 / me=umh / subme=9 / psy=1 / psy_rd=1.10:0.15 / mixed_ref=1 / me_range=32 / chroma_me=1 / trellis=2 / 8x8dct=1 / cqm=2 / deadzone=21,11 / fast_pskip=0 / chroma_qp_offset=-2 / threads=12 / sliced_threads=0 / nr=0 / decimate=1 / interlaced=0 / constrained_intra=0 / bframes=6 / b_pyramid=2 / b_adapt=2 / b_bias=0 / direct=3 / weightb=1 / open_gop=0 / weightp=2 / keyint=250 / keyint_min=23 / scenecut=40 / intra_refresh=0 / rc_lookahead=60 / rc=2pass / mbtree=1 / bitrate=11017 / ratetol=2.0 / qcomp=0.70 / qpmin=1 / qpmax=63 / qpstep=4 / cplxblur=20.0 / qblur=0.5 / vbv_maxrate=40000 / vbv_bufsize=30000 / nal_hrd=none / ip_ratio=1.40 / aq=1:0.90
Язык: English

Аудио #1
Идентификатор: 2
Формат: AC-3
Формат/Информация: Audio Coding 3
Расширение режима: CM (complete main)
Идентификатор кодека: A_AC3
Продолжительность: 1 ч. 39 м.
Вид битрейта: Постоянный
Битрейт: 384 Кбит/сек
Канал(ы): 6 канала(ов)
Расположение каналов: Front: L C R, Side: L R, LFE
Частота: 48,0 КГц
Битовая глубина: 16 бит
Метод сжатия: С потерями
Размер потока: 274 Мбайт (3%)
Заголовок: AC3 5.1 @ 384 kb/s [Russian DUB R5]
Язык: Russian

Аудио #2
Идентификатор: 3
Формат: DTS
Формат/Информация: Digital Theater Systems
Идентификатор кодека: A_DTS
Продолжительность: 1 ч. 39 м.
Вид битрейта: Постоянный
Битрейт: 1510 Кбит/сек
Канал(ы): 6 канала(ов)
Расположение каналов: Front: L C R, Side: L R, LFE
Частота: 48,0 КГц
Битовая глубина: 24 бит
Метод сжатия: С потерями
Размер потока: 1,05 Гбайт (12%)
Заголовок: DTS 5.1 @ 1510 kb/s [English]
Язык: English

Текст #1
Идентификатор: 4
Формат: UTF-8
Идентификатор кодека: S_TEXT/UTF8
Идентификатор кодека/Информация: UTF-8 Plain Text
Заголовок: Russian R5
Язык: Russian

Текст #2
Идентификатор: 5
Формат: UTF-8
Идентификатор кодека: S_TEXT/UTF8
Идентификатор кодека/Информация: UTF-8 Plain Text
Заголовок: English
Язык: English










Поделиться:




реклама партнёра


Вернуться к началу
 Профиль Отправить личное сообщение  
 
   Похожие торренты   Автор   Торрент   Размер 
В этой теме нет новых непрочитанных сообщений. Чудаки: Несносный дед / Jackass Presents: Bad Grandpa [комедия, 2013] BDRip 1080p, Mvo [UNRATED]

Dracon

3 | 2

13.73 ГБ

В этой теме нет новых непрочитанных сообщений. Чудаки: Несносный дед  / Jackass Presents: Bad Grandpa [комедия, 2013] BDRip 720p, Mvo [UNRATED]

Dracon

3 | 2

6.36 ГБ

В этой теме нет новых непрочитанных сообщений. Чудаки: Несносный дед / Jackass Presents: Bad Grandpa [комедия, 2013] BDRip 720p, Dub [Лицензия]

Dracon

0 | 2

5.11 ГБ

В этой теме нет новых непрочитанных сообщений. Чудаки: Несносный дед / Jackass Presents: Bad Grandpa [комедия, 2013] HDRip, avo

Dracon

3 | 2

1.46 ГБ

В этой теме нет новых непрочитанных сообщений. Чудаки: Несносный дед / Jackass Presents: Bad Grandpa [комедия, 2013] HDRip, Mvo [UNRATED]

Dracon

255 | 5

704.02 МБ

В этой теме нет новых непрочитанных сообщений. Несносный дед / Jackass Presents: Bad Grandpa [комедия, 2013] BDRip 1080p, Dub+Sub [Лицензия | Theatrical Cut]

Dracon

255 | 20

7.76 ГБ

В этой теме нет новых непрочитанных сообщений. Несносный дед / Jackass Presents: Bad Grandpa [комедия, 2013] BDRip-AVC, Dub [Театральная версия | Лицензия]

Dracon

1650 | 75

2.92 ГБ


Начать новую тему Ответить на тему  [ 1 сообщение ] 




Для Мосгорсуда, Роскомнадзора и рекламодателей:: mosgorsud-torrent[собачка]yandex.ru