Торрент файл
скачать торрент магнет ссылка Добавлен: 22 фев 2017, 20:54
Размер: 2.43 ГБ
Сидеров: 139
Личеров: 48
Автор

СообщениеДобавлено: 22 фев 2017, 20:54 

Не в сети
Дата регистрации:
28 сен 2016, 18:10
Спасибо: 232 / 0
Сообщения: 1982
Информация о фильме
Название: Орел и Решка. Рай и Ад
Дата/Год выпуска: 2017
Страна: Россия
Жанр: Реалити-шоу, путешествия, познавательный
Продолжительность: ~48 мин
Язык: Русский
Описание: Леся и Регина объехали весь мир. Они все видели, все пробовали, и, кажется, на планете не осталось больше места, которое могло бы их удивить. А что, если отправить их в путешествие по ту сторону? По ту сторону добра и зла!
В новом - 13-м сезоне - Леся и Регина отправятся в самые райские и самые адские места на Земле! Они побывают в мире, где плавятся от наслаждения на белых яхтах, где идеальный сервис и божественная еда заставляют забыть обо всем на свете. Но это еще не все. Они попробуют выжить в странах, куда ни один здравомыслящий человек не поедет по доброй воле, в царстве трущоб и экологического апокалипсиса. Города, от названия которых бросает в дрожь. И где никто не знает о Wi-fi.
Они проберутся в такие места, куда простым смертным путь заказан. И постараются вернуться назад.
Доп. информация: Раздача ведётся путём добавления новых серий, также будет залита на майл облако если возникнут проблемы со скачиванием.
Качество: WEBRip
Формат: AVC
Видео: MPEG-4 AVC, ~3595 Кбит/с, 1280x720, 30.000 fps
Аудио: 44.1 kHz, AAC, 2 ch, 128.00 kbps avg
Раздача от:
01.Тайланд

Format : MPEG-4
Format profile : Base Media
Codec ID : isom
File size : 1.24 GiB
Duration : 47mn 39s
Overall bit rate mode : Variable
Overall bit rate : 3 727 Kbps
Writing application : Lavf57.2.100
Video
ID : 1
Format : AVC
Format/Info : Advanced Video Codec
Format profile : High@L3.1
Format settings, CABAC : Yes
Format settings, ReFrames : 4 frames
Codec ID : avc1
Codec ID/Info : Advanced Video Coding
Duration : 47mn 38s
Bit rate : 3 593 Kbps
Width : 1 280 pixels
Height : 720 pixels
Display aspect ratio : 16:9
Frame rate mode : Variable
Frame rate : 30.000 fps
Minimum frame rate : 14.925 fps
Maximum frame rate : 30.303 fps
Standard : Component
Color space : YUV
Chroma subsampling : 4:2:0
Bit depth : 8 bits
Scan type : Progressive
Bits/(Pixel*Frame) : 0.130
Stream size : 1.20 GiB (96%)
Audio
ID : 2
Format : AAC
Format/Info : Advanced Audio Codec
Format profile : HE-AAC / LC
Codec ID : 40
Duration : 47mn 39s
Bit rate mode : Variable
Bit rate : 128 Kbps
Maximum bit rate : 130 Kbps
Channel(s) : 2 channels
Channel positions : Front: L R
Sampling rate : 44.1 KHz / 22.05 KHz
Compression mode : Lossy
Stream size : 43.6 MiB (3%)




Вернуться к началу
 Профиль Отправить личное сообщение  
 
   Похожие торренты   Автор   Торрент   Размер 
В этой теме нет новых непрочитанных сообщений. Утреннее шоу / The Morning Show [S01] [Драма, комедия, 2019] WEBRip 720p, Mvo [Profix Media]

Haint

0 | 0

13.12 ГБ

В этой теме нет новых непрочитанных сообщений. Лемминг, маленький гигант Севера / Lemming, the little giant of the North (Золтан Тёрёк, Жан Хенрикссон) [2017 г., Документальный, познавательный, флора, фауна, природа, HDTVRip 720p] P1

zorgi

1 | 0

2.05 ГБ

В этой теме нет новых непрочитанных сообщений. Форсаж: Хоббс и Шоу / Форсаж: Гоббс та Шоу / Fast & Furious Presents: Hobbs & Shaw [Боевик, приключения, 2019] WEBRip, Dub [Line] [UKR]

salma3

4 | 3

1.47 ГБ

В этой теме нет новых непрочитанных сообщений. Мы все отправимся в рай / Nous irons tous au paradis [комедия, 1977] BDRip 720p, Mvo

salma3

0 | 0

8.83 ГБ

В этой теме нет новых непрочитанных сообщений. Оборзевшие [2022, ТВ-Шоу, события, стрим, информационно-аналитическая программа, WEBRip]

zorgi

1 | 0

931.63 МБ

В этой теме нет новых непрочитанных сообщений. Люди Z [2022, ТВ-Шоу, события, стрим, информационно-аналитическая программа, WEBRip]

zorgi

0 | 0

1.15 ГБ

В этой теме нет новых непрочитанных сообщений. Развалить ЕС [2022, ТВ-Шоу, события, стрим, информационно-аналитическая программа, WEBRip]

zorgi

0 | 0

1022.65 МБ


Начать новую тему Ответить на тему  [ 1 сообщение ] 




Для Мосгорсуда, Роскомнадзора и рекламодателей:: rstracker[собака]yandex.ru
cron