Торрент файл
скачать торрент магнет ссылка Добавлен: 08 янв 2017, 17:03
Размер: 1.61 ГБ
Сидеров: 0
Личеров: 0
Автор

СообщениеДобавлено: 08 янв 2017, 17:03 

Не в сети
Дата регистрации:
28 сен 2016, 18:10
Спасибо: 203 / 0
Сообщения: 2003

Шекспир. Предостережение Королям... Проект Владимира Познера


[img]http://i90.fastpic.ru/big/2017/0107/9d/69e07342a7b6cd979341aa36d7f2019d.png" class="postImg" alt="Изображение" style="margin:5px;float:right;" align="right" />#77
Год выпуска: 2016
Страна: Россия
Телеканал: Первый Канал HD | ООО "Эс Эф Продакшн"
Жанр: Документальный
Общая продолжительность: 0:52:37
Режиссер: Валерий Спирин
Ведущий: Владимир Познер

Описание: Владимир Познер: "Это документальный фильм, но с элементами художественного. В фильме есть актеры, которые играют небольшие фрагменты из произведений Шекспира. Но все-таки я бы сказал, что это документальный фильм, посвященный Шекспиру. Мы снимали в Лондоне, где жил и играл Шекспир, а также в Стратфорде-апон-Эйвоне, где он родился и где он умер".

Автор рипа: lrn
Автор записи: Doc66
Сэмпл: sendfile

Тип релиза: HDTVRip 720p
Контейнер: MKV
Видео: 1280x720 (16:9), 25,000 fps, H264, ~4000 kbps avg, ~0.174 bit/pixel
Аудио: 48 kHz, AC3 Dolby Digital, 3/2 (L,C,R,l,r) + LFE ch, ~384.00 kbps avg

General
Unique ID : 194030518071565210196486937507791795252 (0x91F8EB2205E29DDB8F0CD794508E7434)
Complete name : Shekspir.Predosterezhenie.Korolyam.2016.HDTVRip.720p.x264-lrn.mkv
Format : Matroska
Format version : Version 4 / Version 2
File size : 1.61 GiB
Duration : 52 min 37 s
Overall bit rate : 4 386 kb/s
Movie name : Shekspir.Predosterezhenie.Korolyam.2016.HDTVRip.720p.x264-lrn
Encoded date : UTC 2010-02-22 21:41:31
Writing application : mkvmerge v5.9.0 ('On The Loose') built on Dec 9 2012 15:37:01
Writing library : libebml v1.3.0 + libmatroska v1.4.0

Video
ID : 1
Format : AVC
Format/Info : Advanced Video Codec
Format profile : High@L4.1
Format settings, CABAC : Yes
Format settings, ReFrames : 8 frames
Codec ID : V_MPEG4/ISO/AVC
Duration : 52 min 37 s
Bit rate : 4 000 kb/s
Width : 1 280 pixels
Height : 720 pixels
Display aspect ratio : 16:9
Frame rate mode : Constant
Frame rate : 25.000 FPS
Color space : YUV
Chroma subsampling : 4:2:0
Bit depth : 8 bits
Scan type : Progressive
Bits/(Pixel*Frame) : 0.174
Stream size : 1.44 GiB (89%)
Writing library : x264 core 148 r2638 7599210
Encoding settings : cabac=1 / ref=8 / deblock=1:-3:-3 / analyse=0x3:0x133 / me=umh / subme=9 / psy=1 / psy_rd=1.00:0.00 / mixed_ref=1 / me_range=32 / chroma_me=1 / trellis=2 / 8x8dct=1 / cqm=0 / deadzone=21,11 / fast_pskip=1 / chroma_qp_offset=-2 / threads=12 / lookahead_threads=2 / sliced_threads=0 / nr=0 / decimate=1 / interlaced=0 / bluray_compat=0 / constrained_intra=0 / bframes=8 / b_pyramid=2 / b_adapt=2 / b_bias=0 / direct=3 / weightb=1 / open_gop=0 / weightp=2 / keyint=250 / keyint_min=25 / scenecut=40 / intra_refresh=0 / rc_lookahead=50 / rc=2pass / mbtree=1 / bitrate=4000 / ratetol=1.0 / qcomp=0.60 / qpmin=0 / qpmax=69 / qpstep=4 / cplxblur=20.0 / qblur=0.5 / vbv_maxrate=62500 / vbv_bufsize=78125 / nal_hrd=none / filler=0 / ip_ratio=1.40 / aq=1:1.00
Default : Yes
Forced : No
Statistics Tags Issue : mkvmerge v8.5.2 ('Crosses') 32bit 2017-01-06 21:43:46 / mkvmerge v5.9.0 ('On The Loose') built on Dec 9 2012 15:37:01 2010-02-22 21:41:31
FromStats_BitRate : 4000533
FromStats_Duration : 00:52:37.640000000
FromStats_FrameCount : 78941
FromStats_StreamSize : 1579030457

Audio
ID : 2
Format : AC-3
Format/Info : Audio Coding 3
Mode extension : CM (complete main)
Format settings, Endianness : Big
Codec ID : A_AC3
Duration : 52 min 37 s
Bit rate mode : Constant
Bit rate : 384 kb/s
Channel(s) : 6 channels
Channel positions : Front: L C R, Side: L R, LFE
Sampling rate : 48.0 kHz
Frame rate : 31.250 FPS (1536 spf)
Bit depth : 16 bits
Compression mode : Lossy
Stream size : 145 MiB (9%)
Language : Russian
Default : Yes
Forced : No
raw [info]: 1280x720p 1:1 @ 25/1 fps (cfr)
x264 [info]: using SAR=1/1
x264 [info]: using cpu capabilities: MMX2 SSE2Fast SSSE3 SSE4.2 AVX
x264 [info]: profile High, level 4.1
x264 [info]: frame I:718 Avg QP:13.71 size:154142
x264 [info]: frame P:22711 Avg QP:16.87 size: 43698
x264 [info]: frame B:55512 Avg QP:20.39 size: 8574
x264 [info]: consecutive B-frames: 4.5% 6.5% 6.9% 71.1% 4.5% 4.2% 0.6% 1.4% 0.3%
x264 [info]: mb I I16..4: 4.9% 73.2% 21.8%
x264 [info]: mb P I16..4: 1.8% 9.9% 1.4% P16..4: 40.0% 21.8% 15.0% 0.9% 0.3% skip: 8.9%
x264 [info]: mb B I16..4: 0.2% 0.8% 0.1% B16..8: 32.5% 7.3% 1.9% direct: 4.8% skip:52.4% L0:35.5% L1:43.9% BI:20.6%
x264 [info]: 8x8 transform intra:74.5% inter:55.3%
x264 [info]: direct mvs spatial:98.3% temporal:1.7%
x264 [info]: coded y,uvDC,uvAC intra: 73.7% 80.1% 52.9% inter: 20.4% 21.7% 3.0%
x264 [info]: i16 v,h,dc,p: 36% 19% 8% 37%
x264 [info]: i8 v,h,dc,ddl,ddr,vr,hd,vl,hu: 15% 13% 11% 7% 10% 11% 11% 10% 12%
x264 [info]: i4 v,h,dc,ddl,ddr,vr,hd,vl,hu: 16% 14% 6% 7% 12% 12% 12% 9% 12%
x264 [info]: i8c dc,h,v,p: 42% 24% 22% 13%
x264 [info]: Weighted P-Frames: Y:2.2% UV:1.1%
x264 [info]: ref P L0: 55.6% 12.5% 15.1% 5.0% 4.1% 2.9% 2.7% 1.8% 0.2% 0.0%
x264 [info]: ref B L0: 85.6% 8.4% 2.8% 1.3% 0.9% 0.6% 0.3%
x264 [info]: ref B L1: 96.6% 3.4%
x264 [info]: kb/s:4000.53
encoded 78941 frames, 16.07 fps, 4000.53 kb/s




реклама партнёра


Вернуться к началу
 Профиль Отправить личное сообщение  
 
   Похожие торренты   Автор   Торрент   Размер 
В этой теме нет новых непрочитанных сообщений. В Поисках Дон Кихота: Проект Владимира Познера и Ивана Урганта [01-08 из 08] (Документальный, 2017) HDTVRip 720p

marya111

0 | 0

11.24 ГБ

В этой теме нет новых непрочитанных сообщений. Звездные войны Владимира Челомея (Алексей Китайцев) [2014, Документальный, HDTVRip]

Nickolas3435

174 | 4

526.16 МБ

В этой теме нет новых непрочитанных сообщений. Миропорядок. Фильм Владимира Соловьева (Россия) [Документальный, 20/12/2015] SATRip

Dracon

84 | 2

1.5 ГБ

В этой теме нет новых непрочитанных сообщений. Семейный альбом [01-09] (Документальный, биография, 2016) HDTVRip 720p от Files-x

marya111

1 | 7

4.84 ГБ

В этой теме нет новых непрочитанных сообщений. Семейный альбом [01-05] ( Документальный, биография, 2016) HDTVRip 720p от Files-x

marya111

4 | 14

4.31 ГБ

В этой теме нет новых непрочитанных сообщений. Выступление Владимира Путина на 70-й ассамблее ООН (Первый канал) [Документальный, 28/09/2015] HDTV 1080i

Dracon

9 | 0

858.74 МБ

В этой теме нет новых непрочитанных сообщений. Выступление Владимира Путина на пленарной сессии дискуссионного клуба «Валдай» (Россия, Сочи) [Дискуссионная сессия, 22.10.2015] WEBRip 720p

Dracon

6 | 0

2.09 ГБ


Начать новую тему Ответить на тему  [ 1 сообщение ] 




Для Мосгорсуда, Роскомнадзора и рекламодателей:: mosgorsud-torrent[собачка]yandex.ru