Торрент файл
скачать торрент магнет ссылка Добавлен: 28 дек 2016, 18:30
Размер: 2.28 ГБ
Сидеров: 18
Личеров: 12
Автор

СообщениеДобавлено: 28 дек 2016, 18:30 

Не в сети
Дата регистрации:
28 сен 2016, 18:10
Спасибо: 199 / 0
Сообщения: 2005
Информация о фильме
Название: Праздничное Богослужение из костела Божией Матери Ружанцовой и святого Доминика (д. Раков, Беларусь)
Год выхода: 24.12.2016
Жанр: Богослужение
О фильме:
Праздничное Богослужение на Рождество Христово из костела Божией Матери Ружанцовой и святого Доминика (д. Раков). Прямая трансляция.
Святочнае набажэнства на Нараджэнне Хрыстовае з касцёла Божай Маці Ружанцовай і святога Дамініка (в. Ракаў)
Католики всего мира готовятся встретить великий праздник — Рождество Христово. Сегодня завершается время адвента — католического поста. В Сочельник верующие готовят традиционную трапезу, которая ближе к вечеру соберет за столом друзей и близких — всю семью.
Как сообщила Белтелерадиокомпания, главное богослужение белорусских католиков сегодня пройдет под началом архиепископа — митрополита Минского и Могилевского Тадеуша Кондрусевича.
Отмечается, что служба пройдет в костеле Божией Матери Ружанцовой и святого Доминика в Ракове.
Трансляцию праздничной литургии сразу после программы «Панорама» по традиции будет вести БГТРК.
Доп. информация: Запись потока *.ts с наземного цифрового телеканала "Беларусь 1".
Благодарность: за помощь с недостающим материалом Bartimeyse и PavelDAS. Обоим большое спасибо!
Страна: Республика Беларусь
Студия: Белтелерадиокомпания
Продолжительность: 01:58:33
Язык: белорусский
Перевод: Отсутствует
Файл
Кодек: AVC (H264)
Качество: DVB
Видео: MPEG4 Video (H264) 720(785)x576 (49:36) 25fps, 2 360 kb/s
Звук: MPEG Audio 48000Hz stereo 256kbps
Семпл
Код:
General
ID                             : 1 (0x1)
Complete name                  : D:Новая  земля 2КонцертыПраздничное Богослужение на Рождество Христово (д. Раков, Беларусь) (24.12.2016)Праздничное Богослужение на Рождество Христово (д. Раков, Беларусь) (24.12.2016).ts
Format                         : MPEG-TS
File size                      : 2.28 GiB
Duration                       : 1 h 58 min
Overall bit rate mode          : Variable
Overall bit rate               : 2 755 kb/s
Video
ID                             : 1421 (0x58D)
Menu ID                        : 1420 (0x58C)
Format                         : AVC
Format/Info                    : Advanced Video Codec
Format profile                 : Main@L3
Format settings, CABAC         : Yes
Format settings, ReFrames      : 4 frames
Format settings, GOP           : M=4, N=24
Codec ID                       : 27
Duration                       : 1 h 58 min
Bit rate                       : 2 360 kb/s
Width                          : 720 pixels
Height                         : 576 pixels
Display aspect ratio           : 4:3
Frame rate                     : 25.000 FPS
Standard                       : PAL
Color space                    : YUV
Chroma subsampling             : 4:2:0
Bit depth                      : 8 bits
Scan type                      : MBAFF
Scan type, store method        : Separated fields
Scan order                     : Top Field First
Bits/(Pixel*Frame)             : 0.228
Stream size                    : 1.95 GiB (86%)
Color range                    : Limited
Color primaries                : BT.601 PAL
Transfer characteristics       : BT.470 System B, BT.470 System G
Matrix coefficients            : BT.601
Audio
ID                             : 1424 (0x590)
Menu ID                        : 1420 (0x58C)
Format                         : MPEG Audio
Format version                 : Version 1
Format profile                 : Layer 2
Codec ID                       : 3
Duration                       : 1 h 58 min
Bit rate mode                  : Constant
Bit rate                       : 256 kb/s
Channel(s)                     : 2 channels
Sampling rate                  : 48.0 kHz
Compression mode               : Lossy
Stream size                    : 217 MiB (9%)
Language                       : English
 






реклама партнёра


Вернуться к началу
 Профиль Отправить личное сообщение  
 
   Похожие торренты   Автор   Торрент   Размер 
В этой теме нет новых непрочитанных сообщений. Минск. Итоги 2016 года ( Документальный, 2016) DVB от AND03AND

marya111

18 | 3

586.18 МБ

В этой теме нет новых непрочитанных сообщений. 25 лет после СССР (01-15 из 15) ( Документальный, 2016) DVB от AND03AND

marya111

435 | 177

11.78 ГБ

В этой теме нет новых непрочитанных сообщений. Праздничное шоу Валентина Юдашкина [эфир 2015.03.08] (Россия) [Тв-шоу, концерт, 2015] HDTVRip

Dracon

22 | 2

1.66 ГБ

В этой теме нет новых непрочитанных сообщений. Праздничное шоу Валентина Юдашкина [эфир 2015.03.08] (Россия) [Тв-шоу, концерт, 2015] HDTV 1080i

Dracon

16 | 2

6.43 ГБ

В этой теме нет новых непрочитанных сообщений. Журнал - Auto Bild №9 [Беларусь] (сентябрь) [2014 г., PDF, RUS]

ivanesko261

4 | 2

29.13 МБ

В этой теме нет новых непрочитанных сообщений. Чемпионат Мира-2014. Группа В. 7-тур. Россия - Беларусь [Хоккей, 2014] HDTVRip

Dracon

99 | 23

1.63 ГБ

В этой теме нет новых непрочитанных сообщений. Чемпионат мира 2015, группа B, тур 5: Беларусь - Россия [Хоккей, 09.05.2015] HDTVRip 720р

Dracon

207 | 39

4.32 ГБ


Начать новую тему Ответить на тему  [ 1 сообщение ] 




Для Мосгорсуда, Роскомнадзора и рекламодателей:: mosgorsud-torrent[собачка]yandex.ru